<?xml version="1.0" standalone="no"?>
<!DOCTYPE svg PUBLIC "-//W3C//DTD SVG 1.1//EN" "http://www.w3.org/Graphics/SVG/1.1/DTD/svg11.dtd">
<svg xmlns="http://www.w3.org/2000/svg">
<metadata>Copyright (C) 2017 by original authors @ fontello.com</metadata>
<defs>
<font id="fontello" horiz-adv-x="1000" >
<font-face font-family="fontello" font-weight="400" font-stretch="normal" units-per-em="1000" ascent="850" descent="-150" />
<missing-glyph horiz-adv-x="1000" />
<glyph glyph-name="quote" unicode="&#xe800;" d="M918 310c-34 9-51 26-51 49q0 59 133 261a250 250 0 0 1 49 131q0 98-86 98-49 0-113-77-253-314-253-591a359 359 0 0 1 79-236 242 242 0 0 1 193-94 205 205 0 0 1 157 67 235 235 0 0 1 63 167q0 178-171 225h0z m-597 0c-36 9-54 26-54 49q0 64 133 261a243 243 0 0 1 52 131q0 98-87 98c-33 0-70-25-112-77q-253-312-253-591a357 357 0 0 1 78-236 241 241 0 0 1 194-94 206 206 0 0 1 157 67 236 236 0 0 1 63 167q0 181-171 225h0z" horiz-adv-x="1089" />

<glyph glyph-name="quote2" unicode="&#xe801;" d="M171 391c34-9 50-26 50-51 0-39-44-126-134-260-28-39-45-84-51-132 0-64 28-98 87-98 34 0 70 25 112 78 168 211 252 407 252 592 3 84-25 168-78 235-42 59-115 95-190 95-59 0-115-25-157-67-42-45-65-107-62-168 0-118 56-194 171-224l0 0 0 0z m597 0c36-9 53-26 53-51 0-42-45-129-135-260-30-37-47-84-50-132 0-64 28-98 87-98 33 0 70 25 112 78 168 208 252 404 252 592 3 84-25 168-79 235-44 59-117 95-193 95-59 0-115-25-157-67-42-45-64-104-64-165 3-124 59-197 174-227l0 0z" horiz-adv-x="1087" />

<glyph glyph-name="glass" unicode="&#xe802;" d="M948 746q0-19-24-43l-353-353v-429h179q15 0 25-10t11-25-11-25-25-11h-500q-14 0-25 11t-11 25 11 25 25 10h179v429l-353 353q-24 24-24 43 0 13 10 21t21 9 24 3h786q13 0 24-3t21-9 10-21z" horiz-adv-x="1000" />

<glyph glyph-name="book" unicode="&#xe803;" d="M930-59v875c0 27-35 34-35 34h-727c-64 0-88-41-98-74h105 644c39 0 38-34 38-34v-799h-45v802h-604v-143h41v-41h-41v-79h41v-41h-41v-87h41v-42h-41v-87h41v-41h-41v-85h41v-41h-41v-94h41v-41h-41v-73h604v52h44v0l37 0c39 0 37 39 37 39z m-233 437c-28-29-65-40-91-30l2-1-54-54 120-120c0 0 3-26-26-26l-120 120-121-121c0 0-26-3-26 27l120 120-54 54 0 1c-24-10-39-21-66 5l0-1-81 81 12 14 85-73 16 16-78 82 12 12 82-78 18 18-75 82 14 14 81-81v0c25-27 15-42 5-67l2 2 54-55 53 54 1 0c-11 25 0 62 29 91 35 35 82 43 106 19 24-23 15-71-20-105z" horiz-adv-x="1000" />

<glyph glyph-name="drink" unicode="&#xe804;" d="M949 657c-3 6-9 10-16 10h-227l40 103 159 47c9 3 14 12 11 21-3 9-12 14-21 11l-166-50c-5-1-10-5-11-10l-47-122h-355c-9 65-65 116-133 116-73 0-133-59-133-133 0-73 60-133 133-133 25 0 48 7 69 19l87-91 21 10c14 6 27 13 38 24 25 26 59 40 92 38 29-2 55-16 74-40 12-19 30-25 43-26 28-4 58 7 82 28 27 26 65 40 102 37l37 0 117 123c5 4 6 11 4 18z m-782 10c-7 0-13-4-16-10-2-7-1-14 4-18l74-78c-14-7-30-11-46-11-55 0-100 45-100 100 0 55 45 100 100 100 50 0 91-36 99-83h-115z m545-212c-32-28-72-42-109-37-28 3-52 17-66 40-12 15-30 24-49 25-24 2-48-9-67-28-15-14-31-24-48-30l-10-5 96-100c22-24 36-54 40-87h102c4 33 18 63 40 87l156 163h-7c-29 2-58-8-78-28z m44-573l-72 29c-51 20-84 69-84 124v165h-100v-165c0-55-33-104-84-124l-72-29c-8-3-12-11-10-19 1-7 8-13 16-13h400c8 0 15 6 16 13 2 8-2 16-10 19z" horiz-adv-x="1000" />

<glyph glyph-name="shaker" unicode="&#xe805;" d="M746 526c-16 90-86 162-178 187h-137c-91-25-161-97-178-187h493z m-500-41l87-620c1-9 8-15 17-15h314c9 0 16 7 17 15l73 620h-508z" horiz-adv-x="1000" />

<glyph glyph-name="bar" unicode="&#xe806;" d="M500 850c-174 0-315-141-315-315 0-174 315-685 315-685s315 511 315 685c0 174-141 315-315 315z m0-559c-134 0-244 110-244 244 0 134 110 244 244 244 134 0 244-110 244-244 0-134-110-244-244-244z m23 223l91 138h-49l26 47 3 0c9 0 16 7 16 16 0 9-7 16-16 16-9 0-16-7-16-16 0-5 2-10 6-13l-28-50h-174l92-138h8v-170c-31-1-53-4-53-8 0-4 31-8 69-8 38 0 69 4 69 8 0 4-22 7-52 8v170h8l0 0z m33 123h30l-17-25-27 0 14 25z m-129-25l-17 25h137l-13-25-107 0z" horiz-adv-x="1000" />

<glyph glyph-name="fridge" unicode="&#xe807;" d="M947 568h-332c-7-17-15-24-36-45v-119c0-9-7-17-16-17-9 0-17 8-17 17v86l-48-48v-503c0-14 12-26 27-26h15v-16c0-12 9-21 21-21h42c11 0 20 9 20 21v16h226v-16c0-12 9-21 20-21h42c12 0 21 9 21 21v16h15c15 0 26 12 26 26v603c0 14-11 26-26 26z m0 272h-422c-15 0-27-12-27-26v-163c14 11 31 18 48 18v104c0 9 8 16 17 16 9 0 16-7 16-16v-112c23-11 37-32 41-55h327c15 0 26 12 26 26v182c0 14-11 26-26 26z m-371-216c-17 16-43 16-58 0l-70-71c-2 16-4 29-5 42-6 45-37 82-81 89-51 0-201 0-253 0-46-7-81-47-81-95l-1-301c0-23 18-41 41-41 0 0 0 0 0 0 22 0 41 18 41 40l1 302c0 7 6 15 17 15l0-705c0-27 22-49 49-49 27 0 49 22 49 49v383c0 6 5 11 11 11 5 0 10-5 10-11v-383c0-27 22-49 49-49s50 22 50 49l-1 705c11 0 17-8 17-15 0-4-1 5 16-128 2-12 9-23 19-29 16-11 38-8 51 5l129 129c15 16 16 42 0 58z m-270 93c9 14 15 30 15 48 0 47-38 85-85 85s-85-38-85-85c0-18 5-34 14-48h141z" horiz-adv-x="1000" />

<glyph glyph-name="emo-beer" unicode="&#xe80b;" d="M1364 850c-29 0-59-7-86-20-4-2-8-4-12-7-38-22-37-12-80-14-32-1-62-12-89-29-26-16-49-39-65-64-16-27-26-58-25-89 1-26 23-46 49-46l0-1 619 0c26 0 48 22 48 48 3 32-7 64-24 91-15 24-36 45-60 61-25 15-53 26-82 29-21 2-42 0-62-6-3 3-7 5-10 8-36 26-79 39-121 39z m-695-47c-61 0-111-65-111-145 0-80 50-145 111-145 60 0 110 65 110 145 0 80-50 145-110 145z m695-50c29 1 60-12 83-37 15-19 42-24 63-11 11 7 24 9 37 8 14-2 28-7 40-15 9-5 17-13 24-21l-487 0c7 8 15 16 24 22 13 8 28 13 42 14 10 0 21-2 31-8 19-13 46-9 62 9 21 25 51 39 81 39z m-1041-49l-269 0c-30 0-54-24-54-54 0-30 24-54 54-54l269 0c30 0 54 24 54 54 0 30-24 54-54 54z m727-190c-23 0-42-19-42-42l0-4-1-412 0 0 0 0 0 0c0-57 24-108 61-145l0 0 0-1 0 0c37-37 89-60 145-60l0 0 220 0c2 0 4 0 5 0 14 1 27 2 39 5 14 3 28 8 41 14 53 25 95 72 112 129l30 0 0 1c35 0 68 14 91 38 23 23 38 55 38 90l0 0 0 0 0 1 0 257 0 0 0 0c0 36-15 68-38 91l0 1c-23 23-55 37-91 37l0 0 0 0-610 0z m591-98c11 0 21-5 28-12l0 0 0 0c7-7 12-17 12-28l0 0 0 0 0-250 0 0 0 0c0-11-5-21-12-28-7-8-17-12-28-12l0 0-61 0 0 0c-20 0-37-16-39-36-4-41-30-75-65-92-7-3-15-5-22-7-7-2-14-2-21-3l-2 0-204 0 0 0c-30 0-58 13-78 33l-1 0c-20 21-33 49-33 79l0 0 0 0 0 0 1 356 102 0 0-349c0-35 69-33 69 0l0 349 102 0 0-353c0-36 69-34 69 0l0 353 183 0 0 0z m-80-60l0-208 32 0c20 0 37 17 37 37l0 133c0 21-17 38-37 38l-32 0z m-1502-15c-6 0-12-1-18-4-28-10-43-40-32-68 46-127 137-229 251-291 22-12 45-22 69-31 58-21 121-33 186-33l0 0 0 0 0 0c57 0 113 9 167 27 10 3 20 7 30 11 11 4 22 8 31 13l0 0 0 0 0 0c27 13 38 45 25 71-12 27-44 38-70 26l0 0c-9-4-17-8-25-11-8-3-16-6-25-9-43-14-88-21-133-21l0 0 0 0 0 0c-52 0-102 9-149 27-19 7-38 15-55 25-92 49-165 131-202 232-8 22-28 36-50 36z" horiz-adv-x="1789" />

<glyph glyph-name="verre_cocktail_full" unicode="&#xe82e;" d="M299 562l168-187h-21l-159 176c-1 7-1 13-1 19 0 2 0 4 0 6l13-14z m397 20c-7 6-14 10-21 12l-1 0c-10 4-21 4-33 2-13-3-28-10-47-22-12-7-23-16-36-25-8-6-17-11-25-17-8-6-15-10-21-14-11-6-21-12-32-16l0 0c-22-9-46-12-71-7-17 3-36 10-55 21l103-114h86l159 176-6 4z m-124-70c-8 0-14 6-14 13 0 8 6 14 14 14s13-6 13-14c0-7-6-13-13-13z m24-23c-4 0-8 4-8 8 0 4 4 8 8 8 5 0 8-4 8-8 0-4-3-8-8-8z m23 23c-13 0-23 10-23 23s10 23 23 23c13 0 23-11 23-23s-10-23-23-23z m-139-152l0 1-13 14-168 187-13 15-24 26c-1-10-2-21-2-32 0-5 0-10 0-14l187-208h38c0 4-2 8-5 11z m307 298l-36-41-218-242-13-14 0 0c-3-3-5-7-5-11h38l172 191 90 99 37 41-65-23z m133 127c-3 8-10 12-18 13l-1 0c-23 1-154 1-401 1h0c-246 0-378 0-401-1l-1 0c-8-1-15-6-18-13-5-12 0-29 15-45l0 0 1-1 164-183 187-207 7-8v0c0-1 0-2 0-3 0-1 0-3 1-5 7-59 8-272 8-274 0-4 0-8 0-11-1-5-1-8-2-12l0-1v0c-1-9-3-18-6-27-1-2-1-3-2-4l0-1c-1-2-2-4-3-6l0 0c-4-8-11-14-19-20l-1 0c0 0 0 0-1-1l0 0c-24-15-61-22-91-25-9-1-19-2-27-3l-10-1c-34-4-57-7-72-16l-1-1-1-1c-5-5-7-12-4-19 4-11 15-17 45-19 0 0 1 0 1 0v-2h17c10 0 21-1 36-1h2c7 0 14 0 22 0h1c22 0 43 1 66 2h71 30 71c23-1 45-1 67-2 8 0 15 0 22 0h3c14 1 26 1 36 1l16 0v1c1 0 2 0 2 0 30 3 41 8 45 19 2 7 1 15-5 20l-1 1-1 0c-14 10-37 13-72 16l-9 1c-8 1-18 2-27 3-29 4-66 10-91 26l0 0c-1 0-1 0-1 1l-1 0c-8 5-15 12-19 19l0 1c-1 1-2 3-3 6l-1 0c0 1-1 3-1 4-3 10-5 19-6 27l-1 2c0 3-1 7-1 11 0 4 0 7 0 12 0 2 0 215 8 274 0 2 0 4 1 5 0 1 0 2 0 3v0l7 8 172 191 91 100 37 41 52 58 1 0 0 0 0 0c15 17 20 34 15 46z m-463-447c0 0-1 1-1 1l11 9-10-10z m86 0l-10 10 11-9c0 0-1 0-1-1z m338 423l-94-103-36-41-218-242-13-14 0 0c-3-3-5-7-5-11-1-3-1-5-1-8 0-1-1-3-1-4-8-61-8-276-8-278 0-5 0-10 0-14 1-5 1-9 2-13l0-2c1-10 4-21 7-33 1-2 2-5 3-7 2-4 3-7 5-11 7-11 17-21 30-30 0 0 1-1 2-1 25-16 57-23 86-28-17 0-35 1-53 1h-72-6v0h-47v0h-49c-18 0-36-1-53-1 29 5 61 12 86 28 1 0 2 1 2 1 13 9 23 19 30 30 2 4 3 7 5 11 1 3 2 5 3 8 3 11 6 22 7 33l0 0c1 5 1 9 2 14 0 4 1 9 1 14 0 2-1 218-9 278 0 2 0 3-1 5 0 2 0 5-1 7 0 4-2 8-5 11l0 1-13 14-168 186-13 15-24 26-35 38 0 0-107 120 0 0 0 0-1 0c-1 2-2 3-3 5 58 0 223 0 384 0h0 14 9v0c196 1 318 0 362 0-2-2-3-3-4-5l0 0 0 0z" horiz-adv-x="1000" />

<glyph glyph-name="verre_coupe_empty" unicode="&#xe82f;" d="M907 773c-8 12-23 19-39 21l-1 0h-675l-2 0c-4-1-25-4-36-17-5-7-7-14-6-22l0-2c0-4 1-13 3-25l1-1c1-8 3-16 5-25 3-10 6-19 10-28 7-18 16-34 26-50 6-10 13-19 21-28 54-64 134-104 239-119 6-9 16-22 30-32l0-19-1-141v-1l-2-199 18 0-18 0c0-17 1-29 1-33 0-4 0-7-1-9l0-1c0-3 0-6-1-9l0-1v-1c-1-7-3-14-5-22-1-1-1-2-1-3l-1 0c0-2-1-4-2-5l0 0c-4-6-9-11-16-16l-2-1c-21-12-54-18-80-21-7 0-14-1-21-2l-3 0c-3 0-6-1-9-1-31-3-52-5-65-13l-2-2c-5-5-7-13-5-20 4-11 14-16 42-18v-2h17c8 0 19 0 32-1h2c6 0 13 0 20 0h0c20 0 40 1 60 1h180c20 0 40-1 59-1 8 0 14 0 20 0h3c13 1 23 1 31 1l18 0v2c27 2 38 7 41 18 3 7 1 15-5 20l-1 1-1 0c-13 9-34 11-65 14-3 0-6 1-9 1l-3 0c-7 1-14 2-21 2-26 3-58 9-80 21l-2 1c-7 5-12 10-16 16l0 0c-1 1-2 3-2 5l-1 0c0 1 0 2-1 3-2 8-4 16-5 22l0 2c-1 3-1 5-1 9l0 1c-1 2-1 5-1 8 0 5 0 17 1 34l-18 0 18 0-3 345 0 15c13 10 24 23 29 32 72 10 128 32 170 58 30 19 53 41 72 63 0 1 1 1 1 2 20 25 34 50 43 74 11 26 17 53 20 80l0 1c0 7-1 13-4 18z m-37-55c-3-11-6-21-10-32-28-68-96-154-267-177l-8-1-5-7c-3-7-15-24-28-31l-1-1c0 0-1 0-1 0l-9-5 0-9 1-31 2-339h0c0-17-1-30-1-34 0-5 1-9 1-12 0-5 1-8 1-12l0 0c2-9 4-19 7-29 1-2 2-4 3-7 1-3 3-6 5-9 6-11 15-19 26-26 1-1 2-1 3-2 12-7 26-12 41-16-4 0-7 0-11 0l-91 0h-90l0 0c-4 0-8 0-11 0 15 4 29 9 41 16 1 1 2 1 2 2 12 7 21 16 27 26 2 3 4 6 5 9 1 3 2 5 3 7 3 10 5 20 7 29l0 0c0 4 1 7 1 12 0 3 1 7 1 12 0 4 0 17-1 34h0l2 339 1 31 0 9-9 5c0 0 0 0-1 1l-1 0c-13 7-25 25-28 31l-5 7-10 2c-99 13-174 50-223 108-7 8-13 16-18 24-9 14-17 29-24 45-1 4-3 8-4 12-2 4-3 9-4 13-2 7-4 15-5 21 0 1-1 2-1 2-1 10-2 17-3 21 3 2 8 3 12 4h366v0h306c4-1 9-2 11-4 0 0 0 0 1 0-1-13-3-26-6-38z" horiz-adv-x="1000" />

<glyph glyph-name="verre_coupe_full" unicode="&#xe830;" d="M907 773c-8 12-23 19-39 21l-1 0h-675l-2 0c-4-1-25-4-36-17-5-7-7-14-6-22l0-2c0-4 1-13 3-25l1-1c1-8 3-16 5-25 3-10 6-19 10-28 7-18 16-34 26-50 6-10 13-19 21-28 54-64 134-104 239-119 6-9 16-22 30-32l0-19-1-141v-1l-2-199 18 0-18 0c0-17 1-29 1-33 0-4 0-7-1-9l0-1c0-3 0-6-1-9l0-1v-1c-1-7-3-14-5-22-1-1-1-2-1-3l-1 0c0-2-1-4-2-5l0 0c-4-6-9-11-16-16l-2-1c-21-12-54-18-80-21-7 0-14-1-21-2l-3 0c-3 0-6-1-9-1-31-3-52-5-65-13l-2-2c-5-5-7-13-5-20 4-11 14-16 42-18v-2h17c8 0 19 0 32-1h2c6 0 13 0 20 0h0c20 0 40 1 60 1h180c20 0 40-1 59-1 8 0 14 0 20 0h3c13 1 23 1 31 1l18 0v2c27 2 38 7 41 18 3 7 1 15-5 20l-1 1-1 0c-13 9-34 11-65 14-3 0-6 1-9 1l-3 0c-7 1-14 2-21 2-26 3-58 9-80 21l-2 1c-7 5-12 10-16 16l0 0c-1 1-2 3-2 5l-1 0c0 1 0 2-1 3-2 8-4 16-5 22l0 2c-1 3-1 5-1 9l0 1c-1 2-1 5-1 8 0 5 0 17 1 34l-18 0 18 0-3 345 0 15c13 10 24 23 29 32 72 10 128 32 170 58 30 19 53 41 72 63 0 1 1 1 1 2 20 25 34 50 43 74 11 26 17 53 20 80l0 1c0 7-1 13-4 18z m-37-55c-3-11-6-21-10-32-28-68-96-154-267-177l-8-1-5-7c-3-7-15-24-28-31l-1-1c0 0-1 0-1 0l-9-5 0-9 1-31 2-339h0c0-17-1-30-1-34 0-5 1-9 1-12 0-5 1-8 1-12l0 0c2-9 4-19 7-29 1-2 2-4 3-7 1-3 3-6 5-9 6-11 15-19 26-26 1-1 2-1 3-2 12-7 26-12 41-16-4 0-7 0-11 0l-91 0h-90l0 0c-4 0-8 0-11 0 15 4 29 9 41 16 1 1 2 1 2 2 12 7 21 16 27 26 2 3 4 6 5 9 1 3 2 5 3 7 3 10 5 20 7 29l0 0c0 4 1 7 1 12 0 3 1 7 1 12 0 4 0 17-1 34h0l2 339 1 31 0 9-9 5c0 0 0 0-1 1l-1 0c-13 7-25 25-28 31l-5 7-10 2c-99 13-174 50-223 108-7 8-13 16-18 24-9 14-17 29-24 45-1 4-3 8-4 12-2 4-3 9-4 13-2 7-4 15-5 21 0 1-1 2-1 2-1 10-2 17-3 21 3 2 8 3 12 4h366v0h306c4-1 9-2 11-4 0 0 0 0 1 0-1-13-3-26-6-38z m-59-50c-11 7-22 12-33 15l-1 0c-16 5-33 5-52 2-20-4-42-12-70-26-17-9-34-19-52-30-12-7-24-14-36-20-8-5-19-10-30-16-15-8-30-14-44-19-29-10-61-12-94-7-29 4-59 14-90 30-14 7-28 14-40 22 48-46 113-76 192-88l16-2 7-14c0 0 1-3 4-7 5-9 11-17 16-22h43c9 8 17 22 20 28l7 15 16 2c93 15 166 53 215 113 5 6 10 13 15 19l-9 5z m-152-54c-9 0-17 8-17 18 0 10 8 18 17 18 10 0 18-8 18-18 0-10-8-18-18-18z m32-29c-5 0-10 5-10 10 0 6 5 11 10 11 6 0 11-5 11-11 0-5-5-10-11-10z m30 29c-16 0-29 14-29 30 0 16 13 30 29 30 17 0 30-14 30-30 0-16-13-30-30-30z" horiz-adv-x="1000" />

<glyph glyph-name="verre_degustation_empty" unicode="&#xe831;" d="M855 520c-2 8-3 16-6 24 0 3-1 5-1 7l-1 1c0 1 0 1 0 2-8 30-17 59-26 87-6 17-11 33-16 49-2 7-4 15-6 21-7 27-14 55-15 76h0c-1 18-13 30-28 30h-41-474-7v-1c-11-4-19-15-20-29l0 0c0 0 0 0 0-1-2-22-6-47-14-75-1-7-3-14-6-22-5-16-10-33-16-51-2-6-3-12-5-17-2-5-3-9-5-14-6-19-11-37-16-55l0-1c0-1 0-1 0-2-18-70-31-162 22-252 2-2 3-5 5-7l1-2c37-58 98-108 186-154 3-1 22-13 48-29 1-1 2-2 4-4 5-6 9-15 11-26 2-7 2-16 2-25 0-3 0-6 0-10 0-4-1-7-1-11-2-8-3-16-6-25l0-1c-1-1-1-2-1-2l-1-1c-15-37-82-44-127-48l0 0c-3-1-5-1-8-1l0 0c-32-3-54-6-68-16l-2-1 0-1c-7-5-9-14-6-23 2-7 7-11 17-15h272 272c10 3 14 8 17 15 3 8 1 17-6 23l-1 1-1 1c-14 9-36 12-68 16l-1 0c-2 0-5 0-8 0l0 0c-45 5-112 12-127 49l0 0c0 1-1 2-1 3l0 0c-3 10-5 18-6 26l0 0c0 4-1 8-1 10 0 4 0 7 0 10 0 9 1 18 2 25 2 12 6 21 11 27 2 1 3 2 4 3 26 17 45 28 48 30 88 46 148 96 186 154 18 28 31 58 37 90 3 13 5 27 6 41 2 31-1 64-8 101z m-91 266l-19-1c0 0 0 0 0 0l0 1 19 0z m60-364c-1-12-3-24-5-36-6-27-16-52-32-76-34-53-90-99-172-141l0 0c-1-1-22-13-50-31-4-3-8-7-12-10-3-4-6-9-9-14-6-11-11-24-13-39-1-8-2-16-2-25 0-4 0-9 1-13 0-4 1-9 2-14 1-9 3-19 7-31l0-1c1-2 1-4 2-6 13-31 40-47 72-57-1 0-2 0-3 0l-110 0h-109l0 0c-1 0-2 0-3 0 31 10 59 26 71 57 1 2 2 5 3 7 3 11 5 21 7 31 0 4 1 9 1 13 0 5 1 10 1 14 0 9-1 17-2 25-2 15-6 28-13 39-2 5-5 9-9 13-4 4-8 8-12 10-28 19-49 31-50 31l-1 1c-81 43-137 89-171 141l-1 1c-1 2-2 4-3 6l0 1c-35 58-42 122-22 209v0c1 5 2 9 4 14l0 1c0 0 0 1 0 1 3 10 6 20 9 30 3 12 7 24 11 36 2 6 3 12 5 18 6 17 12 35 17 52 2 8 4 15 6 22 7 28 12 54 14 77h462 31c2-22 8-47 16-77 2-6 4-14 6-22 5-16 11-33 16-49 8-26 16-52 23-78 1-3 2-6 2-9l1-1c0-2 1-4 1-6l0 0c1-4 2-7 2-10l-17-14 17 14c3-10 5-20 6-29 5-28 6-52 5-75z" horiz-adv-x="1000" />

<glyph glyph-name="verre_degustation_full" unicode="&#xe832;" d="M457 114h-24c-3 3-5 5-8 7-29 19-49 31-49 31-90 46-146 96-179 147-2 3-4 5-5 8-47 78-41 159-21 238l16-18v0c-20-88-13-151 22-210l0 0c1-2 2-4 3-6l1-2c34-52 90-98 172-140l1 0c1-1 21-13 50-31 4-3 8-7 12-11 3-4 6-8 9-13z m350 343l-34 22c-10 8-20 13-29 16l-1 1c-14 4-28 5-44 2-18-4-39-14-65-30-16-11-33-23-51-36-11-8-23-16-34-24l-1 0c-11-8-20-14-29-19-15-9-30-17-45-24l-1 0c-31-13-64-16-100-9-29 5-60 18-92 37-35 21-64 46-84 65-4-51 6-92 29-131l0-1c1-2 2-3 3-5l1-1c31-49 87-94 164-134l2-1c1-1 22-13 51-32 0 0 0 0 0 0h106c1 0 1 0 1 1 29 19 50 31 51 31l2 1c77 41 133 86 164 134 14 22 24 45 29 70 3 10 4 21 5 33v0c1 15 2 24 3 29 0 0 0 0 0 1-1 1-1 3-1 4z m-190-72c-15 0-27 11-27 26 0 15 12 26 27 26 14 0 26-11 26-26 0-15-12-26-26-26z m48-44c-9 0-16 7-16 15 0 9 7 16 16 16 8 0 15-7 15-16 0-8-7-15-15-15z m44 44c-25 0-45 20-45 44s20 45 45 45 45-20 45-45-20-44-45-44z m134 36c0-13-2-26-5-39-6-28-17-56-35-83-33-51-89-101-179-147 0 0-21-12-49-31-3-2-5-4-8-7h-24c3 5 6 10 10 14 3 4 7 7 12 10 28 18 48 30 49 31l1 0c82 42 138 88 172 141 15 24 26 49 32 76 2 12 4 24 4 36 2 23 0 47-4 74l22-15c10-39 5-20 2-60z m12 99l-27 18-9 5c-4 3-8 6-12 9 1-3 2-6 2-9l1-1c0-2 1-4 1-6l0-1c1-3 2-6 2-9 3-10 5-20 6-30 5-26 6-51 5-74-1-12-2-24-5-35-5-28-16-53-32-77-33-52-90-98-171-141l-1 0c-1-1-21-12-50-31-4-3-8-6-11-10-4-4-7-8-10-13-6-11-10-24-13-40h37l3 0c3 12 6 21 12 27 1 1 2 2 4 3 25 17 44 28 47 30 88 46 149 96 186 154 18 28 31 58 38 90 2 13 4 27 5 41 2 30-1 63-8 100z m-398-406c-3 5-6 10-10 13-3 4-7 8-12 11-28 18-49 30-49 31l-1 0c-82 43-138 89-172 141l-1 1c-1 2-2 4-3 6l0 1c-35 58-42 122-22 209v0c1 5 2 9 4 14l0 1c0 0 0 1 0 1 3 10 6 20 9 30l-31 35c-6-19-11-37-16-55l0-1c0-1-1-1-1-2-17-70-31-162 23-252 1-2 3-5 4-7l1-2c38-58 99-108 187-154 3-1 22-13 47-29 2-1 3-2 4-4 6-6 9-15 12-26h40c-3 14-7 27-13 38z m398 406c-2 8-3 16-6 24 0 3-1 5-1 7l-1 1c0 1 0 1 0 2-8 30-17 59-26 87-6 17-11 33-16 49-2 7-4 15-6 21-7 27-14 55-15 76h0c-1 18-13 30-28 30h-41-474-7v-1c-11-4-19-15-20-29l0 0c0 0 0 0 0-1-2-22-6-47-14-75-1-7-3-14-6-22-5-16-10-33-16-51-2-6-3-12-5-17-2-5-3-9-5-14-6-19-11-37-16-55l0-1c0-1 0-1 0-2-18-70-31-162 22-252 2-2 3-5 5-7l1-2c37-58 98-108 186-154 3-1 22-13 48-29 1-1 2-2 4-4 5-6 9-15 11-26 2-7 2-16 2-25 0-3 0-6 0-10 0-4-1-7-1-11-2-8-3-16-6-25l0-1c-1-1-1-2-1-2l-1-1c-15-37-82-44-127-48l0 0c-3-1-5-1-8-1l0 0c-32-3-54-6-68-16l-2-1 0-1c-7-5-9-14-6-23 2-7 7-11 17-15h272 272c10 3 14 8 17 15 3 8 1 17-6 23l-1 1-1 1c-14 9-36 12-68 16l-1 0c-2 0-5 0-8 0l0 0c-45 5-112 12-127 49l0 0c0 1-1 2-1 3l0 0c-3 10-5 18-6 26l0 0c0 4-1 8-1 10 0 4 0 7 0 10 0 9 1 18 2 25 2 12 6 21 11 27 2 1 3 2 4 3 26 17 45 28 48 30 88 46 148 96 186 154 18 28 31 58 37 90 3 13 5 27 6 41 2 31-1 64-8 101z m-91 266l-19-1c0 0 0 0 0 0l0 1 19 0z m60-364c-1-12-3-24-5-36-6-27-16-52-32-76-34-53-90-99-172-141l0 0c-1-1-22-13-50-31-4-3-8-7-12-10-3-4-6-9-9-14-6-11-11-24-13-39-1-8-2-16-2-25 0-4 0-9 1-13 0-4 1-9 2-14 1-9 3-19 7-31l0-1c1-2 1-4 2-6 13-31 40-47 72-57-1 0-2 0-3 0l-110 0h-109l0 0c-1 0-2 0-3 0 31 10 59 26 71 57 1 2 2 5 3 7 3 11 5 21 7 31 0 4 1 9 1 13 0 5 1 10 1 14 0 9-1 17-2 25-2 15-6 28-13 39-2 5-5 9-9 13-4 4-8 8-12 10-28 19-49 31-50 31l-1 1c-81 43-137 89-171 141l-1 1c-1 2-2 4-3 6l0 1c-35 58-42 122-22 209v0c1 5 2 9 4 14l0 1c0 0 0 1 0 1 3 10 6 20 9 30 3 12 7 24 11 36 2 6 3 12 5 18 6 17 12 35 17 52 2 8 4 15 6 22 7 28 12 54 14 77h462 31c2-22 8-47 16-77 2-6 4-14 6-22 5-16 11-33 16-49 8-26 16-52 23-78 1-3 2-6 2-9l1-1c0-2 1-4 1-6l0 0c1-4 2-7 2-10l-17-14 17 14c3-10 5-20 6-29 5-28 6-52 5-75z" horiz-adv-x="1000" />

<glyph glyph-name="verre_flute_empty" unicode="&#xe833;" d="M664-87l-1 0-1 1c-10 6-25 8-47 10-2 1-4 1-6 1l-3 0c-4 1-9 1-14 2-17 2-39 5-54 14l-1 0c-4 3-7 6-9 10l-1 0c0 1-1 2-1 3l0 0c-1 1-1 1-1 2-2 5-3 9-4 14l0 2c0 1-1 3-1 5l0 1c0 2 0 3 0 6 0 1 0 3 0 5 0 4 0 10 0 18l-16 0h1l15 0c-3 96-5 247-1 270 1 2 1 3 1 4 1 4 1 8 1 10 1 8 1 8 6 15 1 3 3 7 6 11 4 7 9 16 15 27 35 63 47 226 48 233l0 161 13 11-13-11v61c0 16-15 26-36 26h-48-9-55-36-21c-21 0-35-10-35-26v-221l0-1c0-7 13-170 47-232 6-11 11-20 15-26 3-5 5-9 7-13 4-7 4-7 5-15 0-2 1-6 1-10 1-1 1-2 1-4 4-23 2-174 0-270l15 0h0l-16 0c0-8 0-14 0-18 0-3 0-4 0-6 0-2 0-4 0-5l0-1c-1-2-1-4-1-6l0-1v0c-1-4-2-9-4-14 0-1 0-2 0-2l-1-1c0-1-1-1-1-2l0-1c-2-3-6-6-10-9l-1-1c-14-8-36-12-54-14-5 0-9-1-14-1l-3 0c-2-1-4-1-6-1-22-2-37-4-47-10l-1-1-1-1c-5-4-7-12-5-18 3-10 12-14 29-16v-1h16c6-1 13-1 22-1h2c4 0 8 0 13 0 1 0 1 0 1 0 14 0 27 0 42 1h54 8 12 8 54c14-1 28-1 42-1 5 0 10 0 14 0h2c9 0 16 0 22 1l17 0v1c16 2 25 6 28 16 3 7 1 14-4 19z m-174-3h-8-12-8-36c1 1 3 2 4 3 1 0 2 0 2 1 9 5 15 12 20 20 2 2 3 4 4 7 1 2 2 4 2 5 3 7 4 14 5 21l0 0c1 2 1 5 1 8 1 3 1 6 1 9 0 1 0 2 0 4 0 4 0 11 0 20v0c1 26 5 237 0 274 0 0 0 1 0 1-1 6-2 10-2 13-1 8-2 12-5 19-1 2-3 5-4 8-2 3-5 7-8 13-3 6-8 14-14 25-30 54-43 208-44 218v135l32-30-32 30v78c1 0 2 1 3 1h21v0h100v0h49c0 0 1 0 2-1v-213c-1-11-13-164-43-218-7-12-12-21-15-27-3-5-5-9-7-12-1-3-3-5-4-8-3-6-3-11-5-18 0-4-1-8-2-13 0-1 0-1 0-2-5-37-1-247 0-274 0 0 0 0 0 0 0-9 0-15 0-20 0-2 0-3 0-4 0-3 0-6 1-9 0-3 0-6 1-8l0 0c1-7 2-14 5-21 0-1 1-3 2-5 1-3 2-5 4-7 4-8 11-15 20-20 0 0 1-1 2-1 1-1 3-2 4-3h-36z" horiz-adv-x="1000" />

<glyph glyph-name="verre_flute_full" unicode="&#xe834;" d="M547 652c0-2 0-3 0-5 0 0 0-1-1-1 0-1 0-2 0-2 0-1-1-2-1-3-1-5-4-9-7-13-2-3-4-4-6-6 0 0 0-1 0-1-3 6-7 11-13 14 0 0-1 0-1 1-4 2-8 3-13 3-16 0-29-13-29-29 0-3 1-5 1-7h-2c-2 0-4 0-6 0-2 0-4 0-5 0-1 0-1 0-2 0 0 0 0 0 0 0 0 1 0 1 0 1-1 2-2 4-4 6 0 0 0 0 0 0-3 3-8 5-12 5-4 0-8-1-11-4-2 1-3 1-4 2-7 4-14 9-18 15-4 4-6 9-7 15 0 0 0 0 0 0-1 1-1 2-1 3 0 1 0 1 0 2-1 1-1 3-1 4v2c0 2 1 3 1 5 1-1 3-3 7-5 4-2 10-5 16-8 6-2 12-4 19-5 6 0 12 0 18 1 4 1 7 2 10 4 2 1 4 1 7 2 7 3 13 7 20 10 6 2 13 4 19 5 5 1 10 1 15-1 3 0 6-1 10-3 0 0 0 0 0 0 0 0 0 0 0 0 0 0 0-1 0-1 0 0 0-1 0-1v-2c1-2 1-3 1-3z m-3-213c0 0 0 0 0 0 0 0 0 0 0 0l0 0z m1 3c0-1-1-2-1-3 1 2 1 4 2 6 0 2 0 4 1 6-1-3-2-6-2-9z m18 135c0 0 0-1 0-1 0 0 0-1 0-1 0 0 0-1 0-1 0-1 0-1 0-2 0 0 0-1 0-1 0-1 0-2 0-3 0-1 0-2 0-3 0 0 0 0 0 0 0-2-1-5-1-7 0 0 0 0 0 0 0-2 0-4-1-6 0-3 0-7-1-11 0-2 0-4 0-7-1-3-1-7-2-11 0-1 0-3 0-5-2-12-4-25-6-39-1-3-1-7-2-11 0-2-1-4-1-6-1-4-1-7-2-11 0 1 1 3 1 4 0 1 0 2 0 2 0 2 1 4 1 6 0 0 0 1 0 1 1 3 1 6 2 9 0 1 0 3 0 4 1 4 1 7 2 11 1 3 1 7 2 11 0 0 0 0 0 1 0 2 0 5 1 7 0 2 0 3 0 5 1 2 1 5 1 8 0 0 1 1 1 2 0 2 0 3 0 5 0 1 1 3 1 4 0 0 0 1 0 1 0 3 1 6 1 9 0 2 0 4 1 5 0 1 0 2 0 3 0 0 0 0 0 1 0 0 0 0 0 0 1 9 2 16 2 21 0 0 0 1 0 1 0 0 0 0 0 0 0 3 0 4 0 5l0 0c0 1 0 1 0 0z m-25-164c1 2 1 4 1 6s1 4 2 6c-1-4-2-8-3-12z m-40-91c1 1 2 3 2 4 1 0 1 1 1 1 0 1 1 2 2 3 0 0 0 0 0 1-2-4-4-6-5-9z m-3-6c1 2 2 4 3 6-1-2-2-4-3-6z m68 261c0 0 0-1 0-1 0 0 0-1 0-1 0 0 0-1 0-1 0-1 0-1 0-2 0 0 0-1 0-1 0-1 0-2 0-3 0-1 0-2 0-3 0 0 0 0 0 0 0-2-1-5-1-7 0 0 0 0 0 0 0-2 0-4-1-6 0-3 0-7-1-11 0-2 0-4 0-7-1-3-1-7-2-11 0-1 0-3 0-5-2-12-4-25-6-39-1-3-1-7-2-11 0-2-1-4-1-6-1-4-1-7-2-11 0 1 1 3 1 4 0 1 0 2 0 2 0 2 1 4 1 6 0 0 0 1 0 1 1 3 1 6 2 9 0 1 0 3 0 4 1 4 1 7 2 11 1 3 1 7 2 11 0 0 0 0 0 1 0 2 0 5 1 7 0 2 0 3 0 5 1 2 1 5 1 8 0 0 1 1 1 2 0 2 0 3 0 5 0 1 1 3 1 4 0 0 0 1 0 1 0 3 1 6 1 9 0 2 0 4 1 5 0 1 0 2 0 3 0 0 0 0 0 1 0 0 0 0 0 0 1 9 2 16 2 21 0 0 0 1 0 1 0 0 0 0 0 0 0 3 0 4 0 5l0 0c0 1 0 1 0 0z m-18-135c0-1-1-2-1-3 1 2 1 4 2 6 0 2 0 4 1 6-1-3-2-6-2-9z m-1-3c0 0 0 0 0 0 0 0 0 0 0 0l0 0z m-6-26c1 2 1 4 1 6s1 4 2 6c-1-4-2-8-3-12z m-25-64c0 0 0 0 0-1 0 1 0 1 0 1 0 0 0 0 0 0z m-10-18c-2-4-3-6-5-9 1 1 2 3 2 4 1 0 1 1 1 1 1 1 1 2 2 4 0 0 0 0 0 0 0 0 0 0 0 0z m-8-15c1 2 2 4 3 6-1-2-2-4-3-6z m169-403l-1 0-1 1c-10 6-25 8-47 10-2 1-4 1-6 1l-3 0c-4 1-9 1-14 2-17 2-39 5-54 14l-1 0c-4 3-7 6-9 10l-1 0c0 1-1 2-1 3l0 0c-1 1-1 1-1 2-2 5-3 9-4 14l0 2c0 1-1 3-1 5v1c0 2 0 3 0 6v5c0 4 0 11 0 18-3 96-5 247-1 270 1 2 1 3 1 4 1 4 1 8 1 10 1 8 1 8 6 15 1 3 3 7 6 11 4 7 9 16 15 27 35 63 47 226 48 233v222c0 16-15 26-36 26h-169c-21 0-35-10-35-26v-222c0-7 13-170 47-232 6-11 11-20 15-26 3-5 5-9 7-13 4-7 4-7 5-15 0-2 1-6 1-10 1-1 1-2 1-4 4-23 2-174 0-270 0-8-1-14-1-18v-6c0-2 0-4 0-5v-1c-1-2-1-4-1-6v-1c-1-4-2-9-4-14 0-1 0-2 0-2l-1-1c0-1-1-1-1-2l0-1c-2-3-6-6-10-9l-1-1c-14-8-36-12-54-14-5 0-9-1-14-1l-3 0c-2-1-4-1-6-1-22-2-37-4-47-10l-1-1-1-1c-5-4-7-12-5-18 3-10 12-14 29-16h329c16 2 25 6 28 16 3 7 1 14-4 19z m-133-4h-5c0 0-1 1-1 1h-99c1 1 3 2 4 3 1 0 2 0 2 1 9 5 15 12 20 20 2 2 3 4 4 7 1 2 2 4 2 5 3 7 4 14 5 21 1 2 1 5 1 8 1 3 1 6 1 9v4c0 4 0 11 0 20 0 17 3 111 3 185 0 41-1 76-3 89 0 0 0 1 0 1-1 6-2 10-2 13-1 8-2 12-5 19-1 2-2 4-4 6 0 0 0 0 0 0 0 1 0 1 0 2-2 3-5 7-8 13-3 6-8 14-14 25-30 54-43 208-44 218v213c1 0 2 1 3 1h170c0 0 1 0 2-1v-213c0 0 0 0 0 0 0 0 0-1 0-1 0 0 0 0 0 0v0c0 0 0 0 0 0 0-1 0-1 0-2 0 0 0 0 0-1 0 0 0-1 0-1 0-1 0-1 0-2 0 0 0-1 0-1 0-1 0-2 0-3 0-1 0-2 0-3 0 0 0 0 0 0 0-2-1-4-1-7 0 0 0 0 0 0 0-2 0-3-1-5 0-4 0-7-1-11 0-3 0-5 0-7-1-4-1-8-2-11 0-2 0-4 0-5-2-13-4-26-6-39-1-4-1-8-2-12 0-2-1-4-1-6-1-3-1-7-2-11 0 0 0 0 0 0-1-3-1-6-2-9 0-1 0-2 0-3h0c0 0 0 0 0 0 0-2-1-4-1-6 0 0 0 0 0 0-1-3-2-5-2-8 0 0 0 0 0 0-1-4-2-8-3-12-1-4-2-8-3-12-1-2-2-4-2-6-1-4-3-9-4-13-1-1-1-1-1-2 0-1 0-1-1-2 0-2-1-4-2-6 0 0 0 0 0 0-2-4-4-8-5-12-1-1-2-2-2-3 0-1-1-2-1-2 0-1-1-1-1-1 0-1-1-3-2-4 0 0 0 0 0-1 0 0-1 0-1-1 0 0 0 0 0 0 0 0 0 0 0 0 0-1 0-1-1-1 0-1 0-1-1-2 0 0 0-1 0-1-1-1-2-2-2-3-1-2-2-3-3-5 0 0 0-1 0-1-1-1-1-1-1-2-1 0-1-1-1-1 0-1-1-1-1-1 0-1 0-1 0-1-2-3-3-6-5-8-1-3-2-5-3-7 0 0-1-1-1-1-3-7-3-11-5-19 0-3-1-7-2-13 0 0 0-1 0-1-5-38-1-248 0-275 0 0 0 0 0 0 0-8 0-15 0-20v-3c0-4 0-7 1-9 0-4 0-6 1-9 1-7 2-13 5-21 0-1 1-3 2-5 1-2 2-5 4-7 4-8 11-14 20-20 0 0 1-1 2-1 1-1 2-1 3-2h44l-39 0z m-36 407c1 2 2 4 3 6-1-2-2-4-3-6z m3 6c1 1 2 3 2 4 1 0 1 1 1 1 0 1 1 2 2 3 0 0 0 0 0 1-2-4-4-6-5-9z m15 27c0 0 0 0 0-1 0 1 0 1 0 1 0 0 0 0 0 0z m25 64c1 2 1 4 1 6s1 4 2 6c-1-4-2-8-3-12z m6 26c0 0 0 0 0 0 0 0 0 0 0 0l0 0z m1 3c0-1-1-2-1-3 1 2 1 4 2 6 0 2 0 4 1 6-1-3-2-6-2-9z m18 135c0 0 0-1 0-1 0 0 0-1 0-1 0 0 0-1 0-1 0-1 0-1 0-2 0 0 0-1 0-1 0-1 0-2 0-3 0-1 0-2 0-3 0 0 0 0 0 0 0-2-1-5-1-7 0 0 0 0 0 0 0-2 0-4-1-6 0-3 0-7-1-11 0-2 0-4 0-7-1-3-1-7-2-11 0-1 0-3 0-5-2-12-4-25-6-39-1-3-1-7-2-11 0-2-1-4-1-6-1-4-1-7-2-11 0 1 1 3 1 4 0 1 0 2 0 2 0 2 1 4 1 6 0 0 0 1 0 1 1 3 1 6 2 9 0 1 0 3 0 4 1 4 1 7 2 11 1 3 1 7 2 11 0 0 0 0 0 1 0 2 0 5 1 7 0 2 0 3 0 5 1 2 1 5 1 8 0 0 1 1 1 2 0 2 0 3 0 5 0 1 1 3 1 4 0 0 0 1 0 1 0 3 1 6 1 9 0 2 0 4 1 5 0 1 0 2 0 3 0 0 0 0 0 1 0 0 0 0 0 0 1 9 2 16 2 21 0 0 0 1 0 1 0 0 0 0 0 0 0 3 0 4 0 5l0 0c0 1 0 1 0 0z m-68-261c1 2 2 4 3 6-1-2-2-4-3-6z m3 6c1 1 2 3 2 4 1 0 1 1 1 1 0 1 1 2 2 3 0 0 0 0 0 1-2-4-4-6-5-9z m40 91c1 2 1 4 1 6s1 4 2 6c-1-4-2-8-3-12z m6 26c0 0 0 0 0 0 0 0 0 0 0 0l0 0z m1 3c0-1-1-2-1-3 1 2 1 4 2 6 0 2 0 4 1 6-1-3-2-6-2-9z m18 135c0 0 0-1 0-1 0 0 0-1 0-1 0 0 0-1 0-1 0-1 0-1 0-2 0 0 0-1 0-1 0-1 0-2 0-3 0-1 0-2 0-3 0 0 0 0 0 0 0-2-1-5-1-7 0 0 0 0 0 0 0-2 0-4-1-6 0-3 0-7-1-11 0-2 0-4 0-7-1-3-1-7-2-11 0-1 0-3 0-5-2-12-4-25-6-39-1-3-1-7-2-11 0-2-1-4-1-6-1-4-1-7-2-11 0 1 1 3 1 4 0 1 0 2 0 2 0 2 1 4 1 6 0 0 0 1 0 1 1 3 1 6 2 9 0 1 0 3 0 4 1 4 1 7 2 11 1 3 1 7 2 11 0 0 0 0 0 1 0 2 0 5 1 7 0 2 0 3 0 5 1 2 1 5 1 8 0 0 1 1 1 2 0 2 0 3 0 5 0 1 1 3 1 4 0 0 0 1 0 1 0 3 1 6 1 9 0 2 0 4 1 5 0 1 0 2 0 3 0 0 0 0 0 1 0 0 0 0 0 0 1 9 2 16 2 21 0 0 0 1 0 1 0 0 0 0 0 0 0 3 0 4 0 5l0 0c0 1 0 1 0 0z m-16 78v4h-1c0 0 0 1-1 1-3 1-6 2-9 3-5 1-10 1-15 0-6-1-12-3-18-5-7-3-14-6-21-9-2-1-4-2-7-3-3-1-6-2-9-3-6-2-13-2-19-1-6 1-13 2-19 5-12 5-21 11-23 12 0-1 0-3 0-4 0 0 0 0-1 0v-75c4-45 18-167 42-211 5-8 9-15 12-21h35c3 6 7 13 12 21 24 44 38 166 42 211v68c0 1 0 3 0 4 0 1 0 2 0 3z m-89-74c-7 0-13 5-13 12 0 7 6 12 13 12 1 0 2 0 3 0-1 2-2 4-3 6 1-2 3-4 4-6 0 0 0-1 0-1 1 0 1 0 2 0 4-2 6-7 6-11 0-7-5-12-12-12z m24-35c-6 0-12 5-12 12s6 12 12 12c7 0 13-5 13-12s-6-12-13-12z m27 35c-12 0-23 10-23 22s10 23 23 23 23-10 23-23-10-22-23-22z m22 41c-2 6-6 11-12 14 6-3 10-8 13-14 0 0-1 0-1 0z m-67-19c0 0-1 0-1 0 0 0-1 0-1 0 0 1 0 1 0 1 0 0 0 0 0 0 1 0 1 0 2-1z" horiz-adv-x="1000" />

<glyph glyph-name="verre_margarita_empty" unicode="&#xe835;" d="M845 783c-7 8-16 12-27 12h-291-12-291c-11 0-20-4-26-12-15-18-10-49-8-57 2-36 14-67 37-93 34-39 79-53 87-56 4-1 43-21 46-104 4-88 79-131 109-145 0 0 0 0 0 0 0-1 1-2 1-3 0-1 0-3 0-5 6-56 7-258 7-266 0-3 0-7 0-11l0 0c0-4-1-8-1-11l0-2c-1-8-3-17-5-26-1-2-1-3-2-4l0-1c-1-2-2-4-3-6-3-7-8-13-15-18l-1-1c-19-15-48-20-72-24-6-1-12-2-18-2l-4-1c-2 0-5 0-7-1-29-3-49-6-61-16l-1-1-1-1c-5-5-7-13-4-19 4-10 14-16 38-19v-1h17c7-1 17-1 28-1l3 0c5 0 11 0 18 0 0 0 0 0 0 0 19 0 36 0 55 1h72 10 72c19-1 37-1 55-1 7 0 13 0 18 0l3 0c11 0 21 0 29 1l17 0v1c23 3 33 8 37 18 3 7 2 14-3 20l-1 1-1 0c-12 10-32 13-61 17-2 0-5 0-8 1l-3 0c-6 1-12 2-18 2-24 4-53 10-72 24l-2 1c-6 5-11 11-15 18-1 2-2 4-2 6l-1 1c0 1 0 3-1 4-2 9-4 18-5 27l0 0c-1 4-1 8-1 12-1 3-1 7-1 11 0 33 2 214 7 266 0 2 1 3 1 4 0 1 0 2 0 3 31 13 113 57 116 146 4 83 42 103 47 104 7 2 53 16 87 56 22 26 35 57 37 93 0 9 5 40-9 58z m-281-458l-1 1c1 0 1 0 2 1-1-1-1-1-1-2z m259 406l0-1 0-1c-2-29-12-55-30-76-30-35-72-46-73-46l-1-1c-3-1-62-23-66-131-3-70-69-107-97-119-4-1-10-3-14-6l-3-1-1-2c-5-5-5-11-6-19 0-1 0-3 0-4-6-53-7-235-7-269 0-5 0-9 0-13 1-5 1-9 1-13l0-1c2-10 4-21 7-32 0-2 1-4 2-7 1-4 2-7 4-10 6-12 14-21 24-30 1 0 2-1 3-2 17-13 40-20 61-25-10 1-21 1-32 1l-73 0v0h-82l-1 0c-10 0-21 0-31-1 21 5 43 12 61 25 1 1 2 2 2 2 11 8 19 18 24 30 2 3 4 7 5 10 1 2 1 5 2 7 3 11 5 22 6 32l0 0c1 4 1 9 1 13 1 5 1 10 1 14 0 8-1 212-7 269-1 2-1 3-1 5 0 3 0 6-1 8 0 4-2 8-5 11l-1 1-2 1c-1 1-2 1-3 2l0 0c0 0-2 1-4 2-22 9-94 45-97 121-4 107-63 130-66 131l-1 0c0 0-43 11-73 46-18 22-28 47-30 77l0 2c-2 10-3 28 2 34 0 0 1 1 3 1h291 12 291c2 0 3-1 3-1 5-6 5-24 2-34z" horiz-adv-x="1000" />

<glyph glyph-name="verre_margarita_full" unicode="&#xe836;" d="M640 604l0 1c-15 5-31 0-56-16-10-6-19-12-29-20-7-4-14-9-21-14-12-8-28-18-46-26-20-8-41-10-64-6-18 4-36 11-52 20 3-9 5-19 7-30 2-10 3-21 3-33 3-63 59-95 84-107h64c26 12 86 46 89 108 0 11 1 21 3 31 4 28 12 52 24 72 3 5 6 9 9 13-6 4-10 6-15 7z m-139-122c-11 0-21 9-21 21 0 11 10 21 21 21 12 0 21-10 21-21 0-12-9-21-21-21z m39-35c-7 0-13 5-13 12 0 7 6 13 13 13 7 0 12-6 12-13 0-7-6-12-12-12z m35 35c-20 0-36 16-36 35 0 20 16 36 36 36s36-16 36-36c0-20-16-35-36-35z m259 317c-6 8-16 12-27 12h-614c-11 0-21-4-27-12-15-19-10-51-9-60 3-36 15-69 39-96 35-40 82-55 90-57 5-2 44-23 48-108 3-91 81-135 112-150 0 0 0 0 0 0 0-1 0-2 1-3 0-1 0-3 0-5 7-58 7-266 7-275 0-3 0-7 0-11l0-1c0-4-1-7-1-11l0-1v0c-1-9-3-18-5-28-1-1-1-3-2-4l0-1c-1-2-2-4-3-6-3-8-8-14-15-19l-2-1c-19-15-50-21-74-25-6-1-13-1-19-2l-4-1c-3 0-5 0-8-1-29-3-50-6-63-17l-1-1-1-1c-5-5-6-13-3-20 3-8 10-13 25-17 4-1 9-1 14-2v-2h17c8 0 18-1 30-1h2c6 0 12 0 19 0h1c18 0 37 1 56 2h159c19-1 38-1 57-2 7 0 13 0 19 0h2c12 1 22 1 30 1l18 0v2c5 1 10 1 14 2 14 4 22 9 25 17 3 7 1 15-4 20l-1 1-1 1c-12 11-33 14-62 17-3 1-6 1-9 1l-3 1c-6 0-13 1-19 2-24 4-55 10-74 25l-2 1c-7 5-12 11-16 19-1 1-1 3-2 6l-1 1c0 1-1 2-1 4-2 9-4 18-5 27l0 1c-1 4-1 8-1 12-1 3-1 7-1 11 0 35 2 221 8 275 0 2 0 3 0 5 0 1 0 2 0 3 32 13 117 59 121 151 3 86 43 106 48 108 7 2 55 16 90 57 23 27 36 59 38 96 1 9 5 41-10 60z m-290-474l0 1c0 0 1 1 1 1 0-1 0-1-1-2z m268 420l0-1 0-2c-2-30-12-56-31-78-31-36-75-48-75-48l-2-1c-2-1-64-24-68-136-3-72-72-110-100-123-5-1-11-3-15-5l-2-2-2-2c-4-6-5-12-6-20 0-1 0-3 0-4-6-55-7-243-7-278 0-5 0-10 0-14 0-4 1-9 1-13l0-1c2-11 4-22 7-33 0-2 1-5 2-7 1-4 3-8 4-11 6-12 15-22 25-31 1 0 2-1 3-2 18-13 41-21 63-26-11 1-22 1-32 1l-76 0h-85l-1 0c-11 0-22 0-32-1 22 5 45 13 63 26 1 1 2 2 3 2 10 9 19 19 25 31 1 3 3 7 4 11 1 2 2 5 3 7 3 11 5 22 6 33l0 0c1 4 1 9 1 13 1 5 1 10 1 14 0 23-1 220-8 279 0 1 0 3 0 5 0 3-1 6-1 8 0 4-2 8-5 11l-1 1-2 2c-1 1-2 1-3 2l0 0c0 0-2 0-5 1-22 10-97 47-100 126-4 111-66 135-68 136l-2 0c0 0-44 12-75 48-19 22-30 48-31 79l0 1-1 1c-2 10-2 29 2 35 1 0 1 1 4 1h613c3 0 4-1 4-1 5-5 5-23 2-34z" horiz-adv-x="1000" />

<glyph glyph-name="verre_martini_empty" unicode="&#xe837;" d="M842 793c-3 7-10 11-17 11l-1 0c-18 1-120 2-310 1h-2-11c-190 1-292 0-311-1l0 0c-8 0-14-4-17-11-8-16 6-40 10-46l1-1 0 0 53-79 200-292 18-26 6-9v0l0 0c0-1 0-2 0-4 0-1 0-3 0-5 6-60 7-277 7-279 0-5 0-8 0-12-1-5-1-9-1-12l0-1c-1-9-3-19-5-29-1-1-1-3-2-4l0-1c0-2-1-4-2-6l-1-1c-3-7-8-14-14-19l0 0c-1 0-1-1-1-1l0 0c-18-15-46-21-68-25-7-1-14-2-21-3l-7-1c-28-3-47-7-59-17l-1-1-1-1c-4-5-5-13-2-19 3-9 12-14 30-18 2 0 4 0 5 0v-2h17c8-1 17-1 27-1h3c5 0 11 0 17 0h1c17 0 34 0 51 1h68 10 68c18 0 35-1 52-1 6 0 12 0 18 0h2c11 0 20 1 27 1l17 0v2c2 0 3 0 5 0 18 3 27 9 30 18 3 6 2 14-2 19l-1 1-1 1c-12 10-31 14-59 17l-7 1c-7 1-14 2-21 3-22 4-50 10-68 25l0 0c0 0 0 0-1 1l0 0c-6 5-11 12-14 19l-1 1c-1 2-1 4-2 6l0 1c-1 1-1 3-1 4-3 10-4 20-5 29l0 1c-1 3-1 7-1 12-1 3-1 7-1 11 0 3 1 220 7 280 0 2 0 4 0 5 0 2 1 3 1 4v0l6 9 204 298 16 7-16-7 28 42 39 56 0 0 0 1 0 0 0 0c5 7 19 30 11 47z m-379-455c0 0-1 0-1 0l13 9-12-9z m89 0l-13 9 13-9 1 1c-1 0-1-1-1-1z m183 326l-28-41-33-15 33 15-169-247-13-19 0 0c-2-2-3-5-4-8 0-3-1-6-1-10 0-1 0-3 0-4-6-62-7-281-7-283 0-5 0-10 0-14 1-5 1-9 1-13l0-1c2-10 3-21 6-33 1-2 2-5 2-7 2-4 3-8 4-11 6-12 13-22 23-31 1 0 2-1 2-1 20-17 46-25 69-29-13 0-26 0-39 1l-69 0h-5v0h-37v0h-36l-1 0c-14-1-27-1-39-1 23 4 49 12 68 29 1 0 2 1 2 1 10 9 18 19 23 31 2 3 3 7 4 11 1 2 2 5 2 7 3 12 5 23 6 33l0 1c0 4 1 8 1 13 0 4 0 9 0 14 0 2 0 221-6 283 0 1-1 3-1 5 0 4 0 7-1 10-1 2-2 5-3 7l-1 1-12 18-168 247 30-17-30 17-30 44-67 98 0 0 0 0-1 0c-1 2-2 4-3 6 13 0 32 0 49 0l38 0c24 0 61 1 206 1h11 3 4v0c155 0 252 0 290-1-1-2-2-4-4-6l0 0 0 0 0 0-69-101z" horiz-adv-x="1000" />

<glyph glyph-name="verre_martini_full" unicode="&#xe838;" d="M658 587c-6 4-11 7-15 9l-1 0c-7 2-14 3-22 1-10-2-21-7-36-16-9-6-18-13-28-20-6-4-13-9-20-14-6-4-12-8-17-11-8-5-17-10-26-13-19-8-39-10-59-6-18 3-36 11-54 22-1 0-2 1-3 1l94-137h73l0 0 122 178-8 6z m-104-69c-6 0-12 6-12 12 0 7 6 13 12 13 7 0 13-6 13-13 0-6-6-12-13-12z m23-20c-4 0-8 3-8 7 0 4 4 7 8 7 4 0 7-3 7-7 0-4-3-7-7-7z m20 20c-11 0-20 9-20 21s9 20 20 20c12 0 21-9 21-20s-9-21-21-21z m138 146l-28-41-169-247-13-19 0 0c-2-2-3-5-4-8h39l204 299 28 41-57-25z m-245-307l-1 0-12 19-169 247-30 44h-41l200-292 18-26h38c-1 3-2 6-3 8z m352 436c-3 7-10 11-17 11l-1 0c-18 1-120 2-310 1h-2-11c-190 1-292 0-311-1l0 0c-8 0-14-4-17-11-8-16 6-40 10-46l1-1 0 0 53-79 200-292 18-26 6-9v0l0 0c0-1 0-2 0-4 0-1 0-3 0-5 6-60 7-277 7-279 0-5 0-8 0-12-1-5-1-9-1-12l0-1c-1-9-3-19-5-29-1-1-1-3-2-4l0-1c0-2-1-4-2-6l-1-1c-3-7-8-14-14-19l0 0c-1 0-1-1-1-1l0 0c-18-15-46-21-68-25-7-1-14-2-21-3l-7-1c-28-3-47-7-59-17l-1-1-1-1c-4-5-5-13-2-19 3-9 12-14 30-18 2 0 4 0 5 0v-2h17c8-1 17-1 27-1h3c5 0 11 0 17 0h1c17 0 34 0 51 1h68 10 68c18 0 35-1 52-1 6 0 12 0 18 0h2c11 0 20 1 27 1l17 0v2c2 0 3 0 5 0 18 3 27 9 30 18 3 6 2 14-2 19l-1 1-1 1c-12 10-31 14-59 17l-7 1c-7 1-14 2-21 3-22 4-50 10-68 25l0 0c0 0 0 0-1 1l0 0c-6 5-11 12-14 19l-1 1c-1 2-1 4-2 6l0 1c-1 1-1 3-1 4-3 10-4 20-5 29l0 1c-1 3-1 7-1 12-1 3-1 7-1 11 0 3 1 220 7 280 0 2 0 4 0 5 0 2 1 3 1 4v0l6 9 204 298 16 7-16-7 28 42 39 56 0 0 0 1 0 0 0 0c5 7 19 30 11 47z m-379-455c0 0-1 0-1 0l13 9-12-9z m89 0l-13 9 13-9 1 1c-1 0-1-1-1-1z m183 326l-28-41-33-15 33 15-169-247-13-19 0 0c-2-2-3-5-4-8 0-3-1-6-1-10 0-1 0-3 0-4-6-62-7-281-7-283 0-5 0-10 0-14 1-5 1-9 1-13l0-1c2-10 3-21 6-33 1-2 2-5 2-7 2-4 3-8 4-11 6-12 13-22 23-31 1 0 2-1 2-1 20-17 46-25 69-29-13 0-26 0-39 1l-69 0h-5v0h-37v0h-36l-1 0c-14-1-27-1-39-1 23 4 49 12 68 29 1 0 2 1 2 1 10 9 18 19 23 31 2 3 3 7 4 11 1 2 2 5 2 7 3 12 5 23 6 33l0 1c0 4 1 8 1 13 0 4 0 9 0 14 0 2 0 221-6 283 0 1-1 3-1 5 0 4 0 7-1 10-1 2-2 5-3 7l-1 1-12 18-168 247 30-17-30 17-30 44-67 98 0 0 0 0-1 0c-1 2-2 4-3 6 13 0 32 0 49 0l38 0c24 0 61 1 206 1h11 3 4v0c155 0 252 0 290-1-1-2-2-4-4-6l0 0 0 0 0 0-69-101z" horiz-adv-x="1000" />

<glyph glyph-name="verre_mélange" unicode="&#xe839;" d="M480-138h-4c-29 0-78 5-118 11-87 13-96 26-100 33-12 18-13 56-14 111-1 19-1 36-2 49-1 8-16 192-29 374-24 350-16 361-10 369 7 9 15 22 267 29l1 0v-36h-1c-137-4-215-10-237-16-6-61 22-456 44-717 1-14 1-32 2-52 0-29 1-79 7-90 17-13 129-29 190-29h3v-36z m-4 0v36h2c50 0 160 17 177 29 6 12 7 63 7 90 1 20 1 38 2 52 22 261 51 657 44 717-22 6-100 12-237 16l1 36c251-7 260-20 266-29 7-8 14-19-10-369-13-182-28-366-29-373-1-13-1-31-1-50-1-57-2-93-14-111-4-6-13-19-95-32-39-6-86-11-110-11h-3z m4 84h-4c-25 0-75 4-123 10-92 13-101 27-106 34l30 20c-1 1-1 1-1 1 16-13 143-29 200-30h4v-35z m-4 0v35h2c54 1 173 15 189 27 0 0-1 0-2-1l30-21c-5-6-13-19-102-31-45-6-92-9-115-9h-2z" horiz-adv-x="1000" />

<glyph glyph-name="verre_mojito_empty" unicode="&#xe83a;" d="M739 817l0 0-4 0h-470-3v0c-67 0-92-8-92-27l0-2c0-3 26-270 27-297 2-22 10-34 17-40 4-42 29-343 35-463l1-4c1-25 1-35 1-39-1-25 3-43 14-53 7-7 15-9 21-9 0 0 0 0 1 0h177 249c1 0 1 0 1 0 6 0 14 3 21 9 11 10 16 28 15 53-1 7 0 21 1 43 0 3 0 6 1 10 1 21 3 48 5 76l0 1c0 1 0 1 0 2l0 1c10 140 27 341 29 373 7 6 16 18 17 40 2 27 27 294 27 297l0 2c0 19-25 27-91 27z m-492-374c18 0 46 0 82-1l27-441h-75c-7 119-28 377-34 442z m477-367c-2-27-4-53-5-73 0-1 0-2-1-2h-84l11 178 17 262c38 0 70 0 91 1-5-53-20-233-29-362 0-2 0-3 0-4z m-98 104l-11-179h-105v440c30-1 61-1 90-1 14 0 29 0 42 0l-16-260z m-136-179h-21-93l-28 441c42 0 92-1 142-1v-440z m223-86h-249-177c-1 2-5 10-4 29 0 6 0 15 0 25h186 248c0-12 0-20 0-25 1-19-3-27-4-29z m57 578c0-11-3-16-5-18-71-6-481 0-530 1-2 2-5 6-5 17-2 25-22 236-27 287 8 2 26 5 62 5h470c36 0 54-3 62-5-5-51-25-262-27-287z" horiz-adv-x="1000" />

<glyph glyph-name="verre_mojito_full" unicode="&#xe83b;" d="M677 417l-20-6-3-52c2 1 4 1 6 1 22 0 40-18 40-39 0-22-18-40-40-40-4 0-7 1-11 2l-6-101-10-155h67c1 17 3 35 4 55 0 2 0 3 0 5 8 113 21 265 27 334l-54-4z m0 0l-20-6-3-52c2 1 4 1 6 1 22 0 40-18 40-39 0-22-18-40-40-40-4 0-7 1-11 2l-6-101-10-155h67c1 17 3 35 4 55 0 2 0 3 0 5 8 113 21 265 27 334l-54-4z m0 0l-20-6-3-52c2 1 4 1 6 1 22 0 40-18 40-39 0-22-18-40-40-40-4 0-7 1-11 2l-6-101-10-155h67c1 17 3 35 4 55 0 2 0 3 0 5 8 113 21 265 27 334l-54-4z m0 0l-20-6-3-52c2 1 4 1 6 1 22 0 40-18 40-39 0-22-18-40-40-40-4 0-7 1-11 2l-6-101-10-155h67c1 17 3 35 4 55 0 2 0 3 0 5 8 113 21 265 27 334l-54-4z m73 37l-78-6-12-3-10-3c-3-1-6-1-9-2 0 0 0 0-1-1l-2-34c-9-4-19-10-31-17-13-8-26-18-40-27-9-7-18-13-27-20-7-4-15-10-24-14-2-2-4-3-6-4v37c-3-2-7-4-10-6-3-2-6-4-10-6v-36c-3-1-6-3-9-4-25-10-51-13-79-7-14 2-29 7-44 14l-2 36c-4 2-7 4-10 6-4 2-7 4-10 6l2-38c-3 1-6 3-9 5-22 13-42 29-56 43 8-98 20-252 26-346h58l1-20h-73c-7 117-28 367-34 436 1 0 2 0 3 0l-3 5-6 8h-11c1-3 1-7 1-13 6-66 27-318 34-435 0-5 0-9 0-12h462c0 3 0 6 0 10 0 0 0 0 0 0 2 21 3 46 5 75 0 1 0 2 0 3 9 127 24 305 29 359 0 6 1 10 1 13l-16-2z m-96-95c2 0 4 1 6 1 22 0 40-18 40-40 0-21-18-39-40-39-4 0-7 1-11 2l5 76z m-20-9l-3-55c-6 7-10 16-10 25 0 12 5 23 13 30z m-13-80c3 0 6-1 8-2l-1-24v0c-2-1-4-2-7-2-7 0-13 6-13 14-1 8 6 14 13 14z m-42 58c13 0 23-11 23-24 0-13-10-23-23-23s-23 10-23 23c0 13 10 24 23 24z m-201-321l-2 20h114v-20h-112z m132 0v20h104l-1-20h-103z m210 78c0 0 0 0 0 0 0-1 0-3 0-4-2-27-3-52-5-72 0-1 0-1-1-2h-82l1 20h68c1 17 2 35 3 55 0 1 0 3 1 5 8 112 20 265 26 334l-53-4-20-6 1 29c38 0 69 1 90 2-5-53-20-230-29-357z m-43 332l-20-6-3-52c2 1 4 1 6 1 22 0 40-18 40-39 0-22-18-40-40-40-4 0-7 1-11 2l-6-101-10-155h67c1 17 3 35 4 55 0 2 0 3 0 5 8 113 21 265 27 334l-54-4z m0 0l-20-6-3-52c2 1 4 1 6 1 22 0 40-18 40-39 0-22-18-40-40-40-4 0-7 1-11 2l-6-101-10-155h67c1 17 3 35 4 55 0 2 0 3 0 5 8 113 21 265 27 334l-54-4z m0 0l-20-6-3-52c2 1 4 1 6 1 22 0 40-18 40-39 0-22-18-40-40-40-4 0-7 1-11 2l-6-101-10-155h67c1 17 3 35 4 55 0 2 0 3 0 5 8 113 21 265 27 334l-54-4z m0 0l-20-6-3-52c2 1 4 1 6 1 22 0 40-18 40-39 0-22-18-40-40-40-4 0-7 1-11 2l-6-101-10-155h67c1 17 3 35 4 55 0 2 0 3 0 5 8 113 21 265 27 334l-54-4z m89 70c-1-8-4-11-5-13-20-2-67-2-125-3-19-5-40-14-64-30-1 0-2-1-3-2 10 0 20 0 29 0 14 0 29 0 42 0v0l-2-35c7 3 13 5 19 6l1 1 1 28c38 1 69 1 90 2-5-53-20-229-28-356 0 0 0 0 0 0 0-2-1-3-1-5-2-26-3-51-4-71-1-1-1-2-1-2h-83l2 20h-19l-2-20h-103v20h-19v-20h-113l-1 20h-19l1-20h-74c-7 117-28 367-34 435 1 0 2 0 3 0 10 0 24 0 40 0l-23 32c-15 0-26 0-32 0-1 2-4 5-5 13h-32c2-21 10-32 17-38 4-50 28-337 34-455l1-4c0-12 1-21 1-27h32c0 4-1 8-1 12h428c0-4 0-8 0-12h31c1 8 1 18 2 31 0 3 0 7 0 10 2 21 3 47 5 75l0 1c0 1 0 1 0 2l0 0c10 138 26 336 29 368 7 6 15 18 17 39 0 0 0 1 0 1l-32-3z m-262-93c-4-2-9-5-13-8v-73c6 3 12 6 19 10v75c-2-1-4-3-6-4z m-148-42l-2 38c-7 5-14 10-20 15l2-41 3-39c6-3 13-7 19-10l-2 37z m379 458l0 0-4 0h-462-4v0c-65 0-90-8-90-27l0-2c1-2 26-265 27-291 0-1 0-2 1-3 1-20 9-31 16-37 4-50 29-338 35-455l0-4c1-13 1-21 1-27 0-6 0-9 0-11-1-26 4-43 15-53 6-6 14-8 20-8 0 0 0 0 1 0h174 245c1 0 1 0 1 0 6 0 14 2 20 8 11 10 16 27 15 53 0 2 0 6 0 11 0 7 1 18 1 31 1 3 1 6 1 10 1 21 3 47 5 75l0 1c0 0 0 1 0 1l0 1c9 138 26 336 29 367 7 7 15 18 16 40 0 0 0 0 0 0 2 29 27 289 27 292l0 1c0 19-25 27-90 27z m-484-367c1 0 2 0 3 0 10 0 24-1 40-1 11 0 24 0 37 0l2-37 3-41 2-39 19-298 1-19h-73c-7 116-28 366-34 435z m464-434c0-1 0-1-1-2h-82l1 20 10 155 6 101 5 76 3 52 2 29c37 0 69 0 89 1-4-52-19-229-28-356 0 0 0 0 0 0 0-1 0-3 0-4-2-27-3-51-5-72z m-75 431l-2-35-3-55v0l-4-55-1-27-2-24v0l-4-61-9-156-2-20h-103v433c20 0 40 0 60 0h0c9 0 19 0 28 0 15 0 29 0 42 0l0 0z m-150-433h-20-93l-1 20-18 288-2 37-3 38-3 51c42 0 91-1 140-1v-433z m223-56c1-18-2-26-4-28h-245-173c-2 2-5 10-5 28 0 4 0 8 0 12 0 4 0 8 0 13h184 244c0-5-1-9-1-13 0-5 0-9 0-12z m53 540c0-1 0-2 0-4-1-8-4-11-5-13-20-2-67-2-125-3-121 0-291 2-365 3-15 0-26 0-32 0-1 2-3 6-4 13-1 1-1 3-1 4-1 24-21 232-26 282 8 2 26 5 61 5h462c36 0 53-3 61-5-5-49-25-257-26-282z" horiz-adv-x="1000" />

<glyph glyph-name="verre_oldfashioned_empty" unicode="&#xe83c;" d="M951 17c0 1 0 3 0 5v765c1 7-1 14-6 21-12 16-38 23-86 23h-690c-76 0-90-25-92-40l0-1v-768c0-2 0-4 0-5v-112c-1-6 1-13 5-19 8-13 25-20 53-23 9-1 21-2 34-2h690c14 0 25 1 35 2 27 3 44 10 52 23 4 6 6 12 5 19v112z m-830 763c5 3 18 7 48 7h690c29 0 43-3 48-5v-755c-3-1-9-3-18-4-8-1-18-1-30-1h-690c-12 0-22 0-30 1-9 1-15 3-19 4v753z m786-870c-3-1-9-2-19-3-7-1-17-2-29-2h-690c-12 0-22 1-30 2-9 1-15 2-18 3v71c4-1 9-1 14-2 9-1 21-1 34-1h690c13 0 25 0 34 1 5 1 10 2 14 2v-71z" horiz-adv-x="1000" />

<glyph glyph-name="verre_oldfashioned_full" unicode="&#xe83d;" d="M883 400l-29 22c-14 10-26 17-38 20l-1 1c-18 6-36 7-57 2-23-5-49-17-81-37-21-14-42-29-64-44-14-10-28-20-43-30-13-9-25-16-36-23-18-11-37-21-55-29l-1 0c-37-16-78-20-121-12-36 7-74 22-113 46-41 25-76 55-100 78l-2-1 0 0v-349h743v358l-2-2z m-178-99c-16 0-29 14-29 30s13 29 29 29c17 0 30-13 30-29s-13-30-30-30z m54-48c-10 0-18 7-18 17 0 10 8 18 18 18s17-8 17-18c0-10-8-17-17-17z m49 48c-27 0-49 23-49 50 0 28 22 50 49 50 28 0 50-23 50-50 0-27-22-50-50-50z m121-283v-18h-393c-14 0-22 0-22 0s-8 0-22 0h-393v18c-1 1 0 2 0 2v480h4l18-19v-454c3-2 9-3 19-4 8-1 18-1 29-1h690c12 0 22 0 30 1 10 1 15 3 19 4v455l20 18h1v-480c0 0 1-1 0-2z m22 4v522h-41l-3-2v-515c-3-1-9-3-18-4-8-1-18-1-30-1h-690c-12 0-22 0-30 1-9 1-15 3-19 4v517h-43v-522c0-2 0-4 0-5v-61h44v25c4-1 9-1 14-2 10-1 21-1 34-1h690c14 0 25 0 35 1 5 1 9 2 13 2v-25h44v61c1 2 1 3 0 5z m0-5c0 1 0 3 0 5v765c1 7-1 14-6 21-12 16-38 23-86 23h-690c-76 0-90-25-92-40l0-1v-768c0-2 0-4 0-5v-112c-1-6 1-13 5-19 8-13 25-20 53-23 9-1 21-2 34-2h690c14 0 25 1 35 2 27 3 44 10 52 23 4 6 6 12 5 19v112z m-830 763c5 3 18 7 48 7h690c29 0 43-3 48-5v-755c-3-1-9-3-18-4-8-1-18-1-30-1h-690c-12 0-22 0-30 1-9 1-15 3-19 4v753z m786-870c-3-1-9-2-19-3-7-1-17-2-29-2h-690c-12 0-22 1-30 2-9 1-15 2-18 3v71c4-1 9-1 14-2 9-1 21-1 34-1h690c13 0 25 0 34 1 5 1 10 2 14 2v-71z" horiz-adv-x="1000" />

<glyph glyph-name="verre_pilsner_empty" unicode="&#xe83e;" d="M698 788c0 4 0 7 0 9 0 16-6 25-12 30-11 11-26 11-29 11h-157-157c-3 0-18 0-29-11-6-5-12-14-12-30 0-1 0-5 0-9 0-25-1-83 2-153 1-13 1-27 2-41 0-2 1-4 1-5 0-3 0-6 0-9 8-107 24-189 48-244 38-90 15-269-12-361-1-1-1-1-1-2 0-1-1-2-1-3l0 0c-1-1-1-1-1-2-1-3-2-5-2-8l0 0c0 0 0 0 0 0-3-7-5-15-6-21-7-31-5-50 5-63 9-12 22-13 31-13 3 0 6 0 8 0 2 0 4 0 5 0h119 119c1 0 3 0 4 0 2 0 5 0 8 0 10 0 23 2 32 13 10 13 11 32 5 63-2 9-5 18-8 29 0 1-1 1-1 2l0 1c-1 1-1 1-1 2 0 1 0 2-1 2-27 93-50 271-12 361 25 56 41 141 48 253 1 11 2 22 2 33 4 76 3 140 3 166z m-60-893c-2-1-9-1-13-1-2 0-5 1-7 1h-118-119c-2 0-4 0-6-1-4 0-12 0-13 1-1 1-6 9 3 43 1 3 2 6 3 10h0c3 0 6 0 9 0 1 0 3 0 4 0h119 119c1 0 3 0 4 0 2 0 5 0 8 0 1 0 1 0 1 0 1-4 2-7 3-10 9-34 3-42 3-43z m25 727c0-10-1-21-2-31 0-4 0-7 0-10-8-103-23-181-45-233-41-94-21-266 7-368-2 0-3 0-4 0h-119-119c-1 0-2 0-4 0 28 102 48 274 7 368-21 49-36 123-44 221l17-12-17 12c0 4 0 9-1 14 0 2 0 5 0 8-1 6-1 13-2 20-4 80-3 149-3 176 0 5 0 8 0 10 0 2 0 5 2 6 1 2 5 2 6 2h158 158c1 0 4 0 6-2 2-1 2-4 2-6 0-2 0-5 0-10 0-26 1-90-3-165z" horiz-adv-x="1000" />

<glyph glyph-name="verre_pilsner_full" unicode="&#xe83f;" d="M639 521l-15 12c-1 1-5 3-13 6-5 1-9 1-14 0-7-1-16-5-27-12-8-5-16-11-24-17-6-4-11-8-16-12l-1 0c-5-3-9-6-14-9-8-5-15-9-23-12l-1 0c-17-7-36-9-55-6-16 3-33 10-49 20-9 5-17 11-24 17 8-65 20-117 36-153 40-94 24-251 0-352h201c-23 101-39 258 1 352 17 38 30 95 38 166z m-137-97c-12 0-22 10-22 22 0 12 10 22 22 22 12 0 22-10 22-22 0-12-10-22-22-22z m39-35c-7 0-13 5-13 12 0 7 6 13 13 13 7 0 13-6 13-13 0-7-6-12-13-12z m0 72c0 20 16 36 36 36 20 0 37-16 37-36 0-20-17-37-37-37-20 0-36 17-36 37z m99-482c1-3 1-6 2-9h-284c1 3 2 6 3 9 28 101 48 272 9 363-27 62-40 154-46 239l17-12c8-98 22-172 43-221 41-94 22-266-6-368 1 0 2 0 4 0h237c1 0 3 0 4 0-28 102-47 274-7 368 22 51 37 130 45 233l7 9h10c-6-88-19-184-47-248-39-91-20-262 9-363z m53 610c1 11 2 22 2 33h-32c0-10-1-20-2-31 0-3 0-7 0-10-8-103-23-181-45-232-41-94-21-267 7-369-2 0-3 0-4 0h-238c-1 0-2 0-4 0 28 102 48 274 7 369-21 49-36 123-44 220 0 5 0 9-1 14 0 3 0 5 0 8-1 7-1 13-2 20l-33 25c1-14 1-28 2-42 0-1 1-3 1-5 0-3 0-6 0-8 8-108 24-190 48-245 38-90 15-268-12-361-1 0-1-1-1-2 0-1-1-1-1-2l0-1c-1-1-1-1-1-2-1-2-2-5-2-7l0 0c0 0 0 0 0 0-3-8-5-15-6-22h33c1 3 2 6 3 9h0c3 0 6 1 9 1 1 0 3 0 4 0h238c1 0 3 0 4 0 2 0 5-1 8-1 1 0 1 0 1 0 1-3 2-6 3-9h33c-2 9-5 19-8 30 0 0 0 1-1 1l0 1c0 1-1 2-1 3 0 0 0 1 0 2-28 92-51 270-12 361 24 55 40 140 47 252z m5 199c0 4 0 7 0 9 0 16-6 25-12 30-11 11-26 11-29 11h-157-157c-3 0-18 0-29-11-6-5-12-14-12-30 0-1 0-5 0-9 0-25-1-83 2-153 1-13 1-27 2-41 0-2 1-4 1-5 0-3 0-6 0-9 8-107 24-189 48-244 38-90 15-269-12-361-1-1-1-1-1-2 0-1-1-2-1-3l0 0c-1-1-1-1-1-2-1-3-2-5-2-8l0 0c0 0 0 0 0 0-3-7-5-15-6-21-7-31-5-50 5-63 9-12 22-13 31-13 3 0 6 0 8 0 2 0 4 0 5 0h119 119c1 0 3 0 4 0 2 0 5 0 8 0 10 0 23 2 32 13 10 13 11 32 5 63-2 9-5 18-8 29 0 1-1 1-1 2l0 1c-1 1-1 1-1 2 0 1 0 2-1 2-27 93-50 271-12 361 25 56 41 141 48 253 1 11 2 22 2 33 4 76 3 140 3 166z m-60-893c-2-1-9-1-13-1-2 0-5 1-7 1h-118-119c-2 0-4 0-6-1-4 0-12 0-13 1-1 1-6 9 3 43 1 3 2 6 3 10h0c3 0 6 0 9 0 1 0 3 0 4 0h119 119c1 0 3 0 4 0 2 0 5 0 8 0 1 0 1 0 1 0 1-4 2-7 3-10 9-34 3-42 3-43z m25 727c0-10-1-21-2-31 0-4 0-7 0-10-8-103-23-181-45-233-41-94-21-266 7-368-2 0-3 0-4 0h-119-119c-1 0-2 0-4 0 28 102 48 274 7 368-21 49-36 123-44 221l17-12-17 12c0 4 0 9-1 14 0 2 0 5 0 8-1 6-1 13-2 20-4 80-3 149-3 176 0 5 0 8 0 10 0 2 0 5 2 6 1 2 5 2 6 2h158 158c1 0 4 0 6-2 2-1 2-4 2-6 0-2 0-5 0-10 0-26 1-90-3-165z" horiz-adv-x="1000" />

<glyph glyph-name="verre_pinte_full" unicode="&#xe841;" d="M629 469c-7 5-14 9-21 11l0 0c-21 7-44 1-78-20-12-8-24-16-37-25-8-6-17-12-26-18-22-15-39-25-56-32-23-9-49-12-76-7-51 10-97 45-124 69v-430h437v438l-19 14z m-114-106c-12 0-22 10-22 22 0 12 10 22 22 22 12 0 22-10 22-22 0-12-10-22-22-22z m39-36c-7 0-13 6-13 13s6 13 13 13 13-6 13-13-6-13-13-13z m37 36c-21 0-37 17-37 37 0 20 16 37 37 37 20 0 36-17 36-37 0-20-16-37-36-37z m89 159v-538h-283c0 0 0 0 0 0h-219v535l8-7c0-184 0-417 0-508 3-2 9-3 14-3h472c3 0 4 0 5 1 0 92 0 331 0 517l3 3z m33 63c-1 0-3 0-4 0v4l-7-6-12-10-13-11v-43c0-186 0-424 0-516-1-2-3-2-5-2h-473c-5 0-10 2-13 3 0 92 0 325 0 509v41l-32 26c0-235 0-611 0-616v-12h32l0 12v6c5-1 10-2 13-2h473c2 0 3 0 5 1v-17h32v12c0 2 0 47 0 115 1 1 2 1 4 2v36c-1-1-3-2-4-2v45c1 0 2 1 4 1v37c-1-1-3-1-4-2 0 112 0 246 0 356 1 0 2 0 4 1v32z m200 24c-36 74-155 53-204 40 0 63 0 106 0 114 0 18-7 28-13 34-13 12-30 13-33 13h-463c-3 0-20-1-33-13-6-6-13-16-13-34 0-11 0-84 0-183 0-235 0-611 0-616v-22c-1-5-1-29 13-44 7-8 17-13 29-13h471c12 0 22 5 29 13 14 15 14 39 13 44v22c0 2 0 47 0 115 1 0 2 1 4 1 24 12 63 36 95 58 58 40 101 115 127 225 1 3 1 5 1 6 5 18 18 153-23 240z m-727 154c0 5 1 8 3 10 3 3 9 4 11 4h463c2 0 8-1 11-4 2-2 3-5 3-10 0-11 0-94 0-202v-42c0-186 0-425 0-517-1-1-3-1-5-1h-473c-5 0-10 1-13 3 0 91 0 324 0 508v42c0 111 0 198 0 209z m491-822c0-5 0-17-5-21 0-1-1-2-5-2h-471c-4 0-5 1-6 2-4 4-5 15-4 21l0 11 0 12v6c5-1 10-2 13-2h473c1 0 3 0 5 1v-27l0-1z m32 610c1 1 2 1 4 1 35 9 100 18 115-14 26-54 19-145 16-156 0-1-1-3-1-5-22-91-57-131-82-148-22-15-38-25-49-31-1-1-2-1-3-2 0 112 0 246 0 355z m196-173c0-1-1-4-1-7-30-126-79-182-115-206-38-25-62-40-77-48-1-1-2-1-3-2v45c1 0 2 1 3 2 13 6 33 18 67 41 44 29 76 85 95 167 0 2 1 3 1 4 4 13 13 113-18 178-25 53-104 43-145 34-1-1-2-1-3-1v31c49 14 150 31 174-21 36-76 26-202 22-217z" horiz-adv-x="1000" />

<glyph glyph-name="verre_shot_empty" unicode="&#xe842;" d="M747 797c-11 5-26 8-46 8h-123-193-122c-20 0-35-3-47-9-25-13-24-36-24-46 0-1 0-2 0-3 1-6 6-38 29-173 5-33 11-66 15-92l0-2c4-22 7-39 8-47 3-21 9-135 13-256 2-70 3-130 3-166 0-99 48-115 69-117 2 0 3 0 5 0 1 0 3 0 4 0h288c1 0 2 0 4 0 1 0 3 0 5 0 20 2 68 18 68 116 0 36 2 97 4 166 4 123 10 236 13 257 1 6 3 20 6 37l0 4 2 1v7c4 25 9 56 14 88 24 138 29 171 29 176 0 1 0 2 0 3 1 11 2 35-24 48z m-115-861h-295l-1 1-1-1-3 0c-19 3-30 31-30 75 0 30-1 76-3 129h365c-2-53-3-99-3-129 1-45-11-73-29-75z m98 816c0-1 0-2 0-3-1-10-16-99-28-171-5-30-10-60-14-84l-3-16c-3-18-5-32-6-38-4-26-10-152-13-258h-368c-4 106-9 232-13 258-1 8-4 25-8 46l0 2c-4 26-10 60-16 93-12 71-26 158-27 168 0 1 0 2 0 3 0 2-1 6 0 7 0 0 0 0 1 1 3 1 10 4 28 4h122 193 123c17 0 25-3 28-4 1-1 1-1 1-1 1-2 0-5 0-7z" horiz-adv-x="1000" />

<glyph glyph-name="verre_shot_full" unicode="&#xe843;" d="M671 404c-5 3-9 5-12 6l-1 1c-10 3-22 3-52-15-10-7-20-14-30-21-7-5-15-10-22-15-13-9-30-20-49-28-23-9-47-11-72-7-38 7-72 29-97 49 3-48 6-114 8-170h341c3 73 7 140 10 181l-24 19z m-131-128c-14 0-25 11-25 25 0 14 11 26 25 26s25-12 25-26c0-14-11-25-25-25z m46-42c-9 0-15 7-15 15 0 8 6 15 15 15 8 0 15-7 15-15 0-8-7-15-15-15z m42 42c-23 0-42 19-42 43 0 23 19 42 42 42 24 0 43-19 43-42 0-24-19-43-43-43z m120 203c-4-24-6-56-7-64-4-25-11-137-15-254h-423c-4 117-10 244-14 268-1 8-4 26-8 49l26-21c1-11 3-19 4-24 4-27 10-157 13-268h382c3 111 9 241 13 268 1 5 3 14 5 26l24 20z m-15 43c-2-12-3-23-5-33l-3-18c-1-4-1-8-2-12-2-13-4-22-4-27-4-26-10-157-14-268h-381c-4 111-10 242-14 268-1 5-2 14-4 25-1 7-3 15-4 23l0 2c-2 12-5 25-7 40l-50 42c5-32 11-62 15-87l0-2c4-23 7-41 8-49 3-21 9-140 13-266 1-14 1-28 2-42h42c0 2 0 3 0 4h379c0-1 0-3 0-4h42c1 14 1 28 2 42 4 128 10 245 13 266 1 7 3 21 6 38l1 5 1 1v8c1 6 3 14 4 21 3 19 7 41 11 63l-51-40z m57 280c-12 6-28 9-48 9h-128-200-127c-21 0-36-3-48-9-27-13-25-37-25-48 0-1 0-2 0-3 1-6 6-39 30-179 0-3 1-5 1-8 5-32 11-63 15-88l0-2c4-22 7-40 8-48 3-22 9-141 13-266 1-14 1-28 2-42 1-54 2-100 2-130 0-103 50-118 71-120 2 0 4-1 6-1 1 0 3 0 4 0h298c1 0 2 0 4 0 2 0 3 0 5 1 22 2 71 18 71 120 0 30 1 76 3 130 0 14 1 28 1 42 4 128 10 244 13 266 1 6 4 20 7 38l0 4 2 2v7c1 7 2 14 3 22 4 19 7 41 11 63 0 2 1 4 1 7 24 142 30 176 30 182 0 1 0 2 0 3 0 10 2 35-25 48z m-87-684c-1-54-2-100-2-130 0-46-12-75-31-77h-306l-1 0-1 0h-3c-19 2-31 31-31 77 0 30-1 76-3 130 0 2 0 3 0 4h379c0-1 0-3-1-4z m69 638c0-1 0-2 0-3-1-10-17-103-30-177-3-19-6-37-9-54-2-12-3-23-5-33l-3-17c-1-5-1-9-2-13-2-12-4-21-4-27-4-26-10-156-14-267h-381c-4 110-10 241-14 267-1 5-2 14-4 25-1 7-3 15-4 23l0 2c-2 12-5 26-7 40-3 18-6 38-10 57-12 73-27 164-28 174 0 1 0 2 0 3 0 2-1 6 0 7 0 0 0 1 1 1 3 2 11 4 29 4h127 201 127c18 0 26-3 29-4 1 0 1-1 1-1 0-1 0-5 0-7z" horiz-adv-x="1000" />

<glyph glyph-name="verre_tulipe_empty" unicode="&#xe844;" d="M563 662c0-4 1-10 1-16l22 105c-12-31-23-69-23-89z m0 0c0-4 1-10 1-16l22 105c-12-31-23-69-23-89z m134-750l-1 1-1 1c-10 9-27 12-51 15l-7 1c-5 0-12 1-18 2-19 3-43 8-58 21l-1 1c-6 5-10 10-13 16l0 0c-1 2-2 3-2 5l0 1c-1 1-1 2-1 3-2 9-4 17-5 24l0 1c0 3 0 6-1 10 0 3 0 6 0 10 0 7 1 144 4 213 0 7 1 13 1 19 0 0 0 0 0 0l0 0c1 1 2 1 3 2 104 71 83 224 72 262-4 11-8 32-12 56-2 8-3 15-4 23l-1 5c0 2 0 3-1 5-3 24-5 43-5 53 0 8 3 22 7 37 9 32 23 70 31 80 9 13 6 23 4 28-7 13-25 14-30 14h-214c-5 0-23-1-29-14-3-5-5-15 4-28 11-15 38-92 38-117 0-3-1-7-1-12-1-10-2-24-5-40 0-2 0-4-1-6 0 0 0-1 0-2 0-1 0-2 0-3-6-33-12-65-16-79-12-38-33-194 74-264v0c0 0 0 0 0 0 1-5 1-12 2-19 3-69 4-206 4-212 0-3 0-7-1-10 0-4 0-7-1-10l0-1c-1-8-2-16-4-24 0-1-1-3-1-4l0 0c-1-2-1-4-2-5l0-1c-3-6-7-11-13-16l-1-1c-15-12-39-17-58-20-6-1-13-2-18-3l-7-1c-24-3-41-6-51-15l-1-1-1-1c-4-5-5-12-3-18 3-7 11-12 25-15h350c14 3 22 8 25 15 1 6 0 13-4 18z m-216 365l0 0c1 0 1 0 1 0l-1 0z m86-370l-65 0h-69l0 0c-7 0-14 0-20 0 16 4 32 10 46 21 1 1 1 1 2 2 9 7 16 16 20 27 2 3 3 6 4 9 1 2 1 4 2 6 2 10 4 20 5 29l0 0c0 4 0 7 1 12 0 4 0 9 0 12 0 6 0 140-4 211-1 11-1 21-2 28 0 2 0 3 0 4-1 4-3 7-5 9l0 0-1 1 0 0c0 0 0 0 0 0l-4 3h-1c-92 58-74 199-64 230 4 14 10 42 15 73 1 3 1 7 2 11 0 0 0 1 0 2 0 1 0 2 0 3 1 6 2 13 3 22 2 14 4 30 4 40 0 30-24 100-39 128h204c-3-6-7-14-11-24l-6-15c-11-31-22-69-22-88 0-5 1-11 1-17 2-14 4-32 6-46l1-5c1-4 1-7 2-11 1-7 2-15 4-22 4-22 8-40 11-50 0-1 0-1 0-2 0 0 0-1 1-2 0-3 1-6 2-10 0 0 0 0 0 0 0-1 0-3 1-5 0-2 0-4 1-6 0 0 0 0 0-1 0-2 0-3 0-5 1-3 1-6 1-9 0-2 1-3 1-5 0-1 0-2 0-3 0-1 0-3 0-5 1-7 1-15 1-22 0-9-1-18-2-27 0-3-1-7-1-11-1-1-1-3-1-5-1-2-1-4-1-5-1-6-3-11-4-17-1-1-1-3-2-4-1-5-3-10-5-16 0-1-1-1-1-2 0-1-1-2-1-3-2-4-3-7-5-11-1-1-1-3-2-4-1-1-2-2-2-3-1-1-1-2-1-2-1-1-1-2-2-3-1-1-2-3-3-4-1-2-2-3-3-4-1-1-1-2-2-3-1-1-2-2-3-3-1-2-2-3-3-4-3-3-5-5-8-8-1-1-3-2-4-4-2-1-3-2-5-3 0-1 0-1-1-1-1-1-2-2-3-2 0-1-1-1-2-2-1-1-3-2-4-3l-2 0-2-1h0l-2-1-2-3c-2-2-5-5-5-10 0-1-1-2 0-3-1-7-2-17-2-28-4-68-4-195-4-212 0-4 0-8 0-12 0-4 1-8 1-11l0-1c1-9 3-18 5-28 0-2 1-4 2-6 1-4 2-7 3-10 5-10 12-19 21-26 0-1 1-1 1-2 14-11 30-17 47-22-5 0-11 0-18 0z m-4 755c0-4 1-10 1-16l22 105c-12-31-23-69-23-89z" horiz-adv-x="1000" />

<glyph glyph-name="verre_tulipe_full" unicode="&#xe845;" d="M478 299h44c19 14 32 32 41 53 13 28 16 60 17 88 0 31-5 57-8 66-1 6-3 15-5 24l-1 0c0 1 0 2 0 3v0c0 1 0 2 0 3 0 1-1 2-1 3-3 2-6 4-9 5-5 1-9 1-14 1l0 0c0 0 0 0 0 0 0 0 0 0 0 0-6-2-12-5-18-8-6-4-12-9-19-13-2-2-4-3-6-4l-2-2c-9-2-18-3-27-1-7 2-14 4-21 7-8 6-14 13-15 14h0l0 0c-1-2-1-3-1-5-2-10-4-19-6-26-7-24-26-152 51-208z m34 140c-5 0-9 4-9 10s4 9 9 9c6 0 10-4 10-9s-4-10-10-10z m51 67c2-4 3-8 3-13 0-15-12-27-27-27-3 0-5 0-8 1-11 4-19 14-19 26 0 15 12 27 27 27 10 0 19-6 24-14z m-64-24c0-9-7-16-16-16s-16 7-16 16c0 8 8 16 16 16s16-8 16-16z m103 34c-1 4-3 11-5 19v0l8 42c-1 7-3 14-4 22l-1 6c0 1 0 3 0 4-4 25-6 44-6 53 0 9 3 22 7 38l-10 66-6-15-21-105c1-15 3-32 5-46l1-6c1-3 1-7 2-10 1-8 3-15 4-22 4-22 8-40 11-51 0 0 0-1 0-1 1-1 1-2 1-2 1-3 1-6 2-10 0 0 0 0 0 0 0-2 1-4 1-5 0-2 1-4 1-6 0 0 0-1 0-1 0-2 1-4 1-6 0-2 0-5 1-8 0-2 0-4 0-5 0-1 0-2 0-3 0-2 1-4 1-5 0-7 0-15 0-23 0-8-1-17-2-26 0-4-1-7-1-11 0-2-1-4-1-5 0-2-1-4-1-6-1-5-2-11-4-16 0-2-1-3-1-4-2-6-4-11-6-16 0-1 0-2-1-3 0-1 0-1-1-2-1-4-3-8-5-11 0-2-1-3-2-4-1-1-1-3-2-4 0 0-1-1-1-1-1-1-1-2-2-3-1-2-2-3-3-5 0-1-1-2-2-3-1-1-2-3-3-4-1-1-2-2-3-3-1-1-2-2-3-3-2-3-5-6-8-8-1-1-2-3-4-4-1-1-3-2-4-4-1 0-1 0-1 0-1-1-2-2-3-3-1 0-2-1-2-1-2-1-3-2-5-3l-2 0-2-1h0l-1-2-3-2c-2-2-4-5-5-10 0-1 0-2 0-3-1-7-1-17-2-28h30l1 1c1 7 1 13 2 19 0 0 0 0 0 0l0 0c1 1 1 1 2 2l5 23c84 70 61 208 53 234z m-114-249c-1 5-3 8-5 10l-1 0 0 1 0 0c0 0 0 0-1 0l-3 3h-2c-92 58-73 198-63 230 4 14 10 41 15 72 0 4 1 8 1 11 0 1 1 2 1 3 0 1 0 2 0 2 1 6 2 14 3 22l-28 28c-1-10-3-24-5-39 0-2-1-4-1-6 0-1 0-2 0-3 0-1-1-2-1-2-5-34-11-66-15-79-12-39-33-194 74-264v0c0 0 0 0 0 0 0-6 1-12 1-20l2-1h30c-1 11-1 21-2 28 0 2 0 3 0 4z m75 395c0-4 1-10 1-16l22 105c-12-31-23-69-23-89z m0 0c0-4 1-10 1-16l22 105c-12-31-23-69-23-89z m134-750l-1 1-1 1c-10 9-27 12-51 15l-7 1c-5 0-12 1-18 2-19 3-43 8-58 21l-1 1c-6 5-10 10-13 16l0 0c-1 2-2 3-2 5l0 1c-1 1-1 2-1 3-2 9-4 17-5 24l0 1c0 3 0 6-1 10 0 3 0 6 0 10 0 7 1 144 4 213 0 7 1 13 1 19 0 0 0 0 0 0l0 0c1 1 2 1 3 2 104 71 83 224 72 262-4 11-8 32-12 56-2 8-3 15-4 23l-1 5c0 2 0 3-1 5-3 24-5 43-5 53 0 8 3 22 7 37 9 32 23 70 31 80 9 13 6 23 4 28-7 13-25 14-30 14h-214c-5 0-23-1-29-14-3-5-5-15 4-28 11-15 38-92 38-117 0-3-1-7-1-12-1-10-2-24-5-40 0-2 0-4-1-6 0 0 0-1 0-2 0-1 0-2 0-3-6-33-12-65-16-79-12-38-33-194 74-264v0c0 0 0 0 0 0 1-5 1-12 2-19 3-69 4-206 4-212 0-3 0-7-1-10 0-4 0-7-1-10l0-1c-1-8-2-16-4-24 0-1-1-3-1-4l0 0c-1-2-1-4-2-5l0-1c-3-6-7-11-13-16l-1-1c-15-12-39-17-58-20-6-1-13-2-18-3l-7-1c-24-3-41-6-51-15l-1-1-1-1c-4-5-5-12-3-18 3-7 11-12 25-15h350c14 3 22 8 25 15 1 6 0 13-4 18z m-216 365l0 0c1 0 1 0 1 0l-1 0z m86-370l-65 0h-69l0 0c-7 0-14 0-20 0 16 4 32 10 46 21 1 1 1 1 2 2 9 7 16 16 20 27 2 3 3 6 4 9 1 2 1 4 2 6 2 10 4 20 5 29l0 0c0 4 0 7 1 12 0 4 0 9 0 12 0 6 0 140-4 211-1 11-1 21-2 28 0 2 0 3 0 4-1 4-3 7-5 9l0 0-1 1 0 0c0 0 0 0 0 0l-4 3h-1c-92 58-74 199-64 230 4 14 10 42 15 73 1 3 1 7 2 11 0 0 0 1 0 2 0 1 0 2 0 3 1 6 2 13 3 22 2 14 4 30 4 40 0 30-24 100-39 128h204c-3-6-7-14-11-24l-6-15c-11-31-22-69-22-88 0-5 1-11 1-17 2-14 4-32 6-46l1-5c1-4 1-7 2-11 1-7 2-15 4-22 4-22 8-40 11-50 0-1 0-1 0-2 0 0 0-1 1-2 0-3 1-6 2-10 0 0 0 0 0 0 0-1 0-3 1-5 0-2 0-4 1-6 0 0 0 0 0-1 0-2 0-3 0-5 1-3 1-6 1-9 0-2 1-3 1-5 0-1 0-2 0-3 0-1 0-3 0-5 1-7 1-15 1-22 0-9-1-18-2-27 0-3-1-7-1-11-1-1-1-3-1-5-1-2-1-4-1-5-1-6-3-11-4-17-1-1-1-3-2-4-1-5-3-10-5-16 0-1-1-1-1-2 0-1-1-2-1-3-2-4-3-7-5-11-1-1-1-3-2-4-1-1-2-2-2-3-1-1-1-2-1-2-1-1-1-2-2-3-1-1-2-3-3-4-1-2-2-3-3-4-1-1-1-2-2-3-1-1-2-2-3-3-1-2-2-3-3-4-3-3-5-5-8-8-1-1-3-2-4-4-2-1-3-2-5-3 0-1 0-1-1-1-1-1-2-2-3-2 0-1-1-1-2-2-1-1-3-2-4-3l-2 0-2-1h0l-2-1-2-3c-2-2-5-5-5-10 0-1-1-2 0-3-1-7-2-17-2-28-4-68-4-195-4-212 0-4 0-8 0-12 0-4 1-8 1-11l0-1c1-9 3-18 5-28 0-2 1-4 2-6 1-4 2-7 3-10 5-10 12-19 21-26 0-1 1-1 1-2 14-11 30-17 47-22-5 0-11 0-18 0z m-4 755c0-4 1-10 1-16l22 105c-12-31-23-69-23-89z" horiz-adv-x="1000" />

<glyph glyph-name="verre_tumbler_emply" unicode="&#xe846;" d="M662 779v-556h-34v558c0 1 0 1-1 1 0 1-2 1-5 1h-113v16h-17v18h130c16 0 26-6 31-12 9-10 9-22 9-26z m-136 38v-18h-17v-16h-113c-3 0-5 0-5-1 0 0-1 0-1 0l0-2v-557h-34v556c0 5 0 16 9 26 5 6 15 12 31 12h130z m0-932v-19h-130c-5 0-11 1-16 2-18 6-25 23-24 36v319h34v-321c0 0 0-1 1-1 0 0 0 0 0 0 1-1 3-1 5-1h113v-15h17z m112-16c-5-2-11-3-16-3h-130v19h17v15h113c2 0 4 0 5 1 0 0 0 0 0 0 0 0 1 1 1 1l0 1v320h34v-319c1-13-6-29-24-35z m-112 105v-19h-130c-2 0-4 0-6 1-3 0-7 1-10 2-14 5-23 16-24 31l0 0c0 1 0 1 0 2 0 1 0 1 0 2v319h34v-89l0-231c0 0 0 0 0-1 0 0 0 0 0 0 0 0 0 0 1 0 0 0 0 0 0-1 1 0 2 0 5 0h113v-16h17z m136 15l0 0c-2-15-10-27-24-31-3-1-7-2-10-2-2-1-4-1-6-1h-130v19h17v15h113c2 0 4 1 4 1 1 0 1 0 1 0 0 0 0 1 0 1 0 0 0 0 0 0v1l0 0v320h34v-319c1-1 1-2 1-4z" horiz-adv-x="1000" />

<glyph glyph-name="verre_tumbler_full" unicode="&#xe847;" d="M407 6h204v560l-1 0v1c0 3 0 6-1 9-4 3-9 6-14 7-7 3-14 3-22 1-9-2-17-6-26-12-10-6-20-13-30-20-3-2-6-4-9-6-4-3-9-6-14-8-8-3-17-4-26-2-9 2-19 6-27 11-18 11-31 25-33 28h0l0 0c-1-5-1-10-1-15 0-1 0-3 0-5v-549z m95 523c9 0 17-7 17-17 0-10-8-17-17-17s-18 7-18 17c0 10 8 17 18 17z m59-26c-17 0-30 13-30 29s14 30 30 30 29-14 29-30-13-29-29-29z m-28-16c6 0 11-5 11-11 0-5-5-10-11-10-5 0-10 5-10 10 0 6 5 11 10 11z m129-494v684l-34-21v-40-625c0 0 0-1 0-1 0 0-1 0-1 0-1 0-2-1-5-1h-225c-3 0-5 1-5 1-1 0-1 0-1 0 0 0 0 1 0 1v628 45l-34 29v-700c0-1 0-1 0-2v-53h34v18c2-1 4-1 6-1h225c2 0 4 0 6 1v-18h34v51c0 2 0 3 0 4z m0-89v85c0 2 0 3 0 4v230 89 467c0 5 0 16-9 26-5 6-15 12-31 12h-96-34-96c-16 0-26-7-31-12-9-10-9-22-9-26v-467-89-230c0 0 0-1 0-2v-87c-1-13 7-29 24-35 5-2 10-3 16-3h96 34 96c5 0 11 1 16 3 18 6 25 22 24 35z m-272 408v468l0 2c0 0 1 0 1 0 0 1 2 1 5 1h113 113c3 0 5 0 5-1 0 0 1 0 1-1v-469-89-231-1c0 0 0-1 0-1 0 0-1 0-1 0-1 0-2-1-5-1h-113-112c-3 0-5 1-5 1-1 0-1 0-1 0 0 0 0 1 0 1v232 89z m238-411c0 0-1 0-1 0-1-1-3-1-5-1h-113-112c-3 0-4 0-5 1-1 0-1 0-1 0 0 0 0 1 0 1v54c2-1 4-1 6-1h95 34 96c2 0 4 0 6 1v-53l0-1c0 0 0-1 0-1z" horiz-adv-x="1000" />

<glyph glyph-name="zesteur" unicode="&#xe848;" d="M645 200c-27-20-54-34-60-38-1-1-2-1-4-2-5-4-33-18-61 23l-250 359c0 1-46 64-82 115l24 17c36-51 82-114 82-115l250-359c9-12 17-18 22-15l0 0 2 3 1 0c1 0 37 19 70 44l0 0c7 6 8 11 8 14 1 11-10 24-13 27l-2 2-1 2c-63 108-284 413-359 494l21 20c76-81 298-387 363-498 5-6 22-26 21-49 0-9-4-23-20-35l0-1c-4-2-8-5-12-8z m-396 511c-6-4-14-7-22-6-9 1-17 5-23 12-6 7-9 15-8 24 0 9 5 17 11 23 7 6 16 9 25 8l0 0c19-1 32-18 31-36-1-9-5-17-12-23 0-1-1-1-2-2z m-31 44c-1 0-1 0-2-1-4-3-6-8-7-13 0-6 2-11 5-15 3-4 8-7 14-7 5 0 10 1 14 5 4 3 7 8 7 13 1 11-7 21-18 22l0 0c-5 0-9-1-13-4z m618-732l-152-93-87 165-45 83 98 60 186-215z m-141-52l96 59-147 170-53-32 32-59 72-138z m-73 77c-6-5-13-7-21-6-9 0-17 4-22 11-6 7-9 15-8 24 1 17 17 31 35 29 9-1 16-5 22-11 6-7 8-15 8-24-1-10-6-18-14-23z m-28 38c-3-2-6-6-6-11 0-4 1-8 4-11 2-3 6-5 10-5 8-1 16 5 17 14 0 4-1 8-4 11-3 3-6 5-10 5-4 1-8-1-11-3z m125-177c-5-4-12-6-20-6-16 2-28 16-27 33 1 8 4 15 11 20 6 5 14 8 22 7 8-1 15-4 20-11 5-6 8-14 7-22-1-8-6-16-13-21z m-27 37c0 0 0 0-1 0-3-3-5-7-5-11-1-9 6-17 14-18 9 0 17 6 18 15 0 4-1 8-4 12-3 3-7 5-11 5l0 0c-4 1-8 0-11-3z m104 14c-6-4-13-6-20-5-16 1-29 16-27 32 0 8 4 15 10 20 6 6 14 8 22 7l0 0c8 0 16-4 21-10 5-6 7-14 7-22-2-9-6-17-13-22z m-27 38c0-1-1-1-1-1-3-3-5-7-6-11 0-9 6-17 15-17 4-1 8 1 12 3 3 3 5 7 5 11 1 5-1 9-3 12-3 3-7 5-11 6l0 0c-4 0-8-1-11-3z m67-14c-6-5-13-6-20-6-17 1-29 16-28 32 2 17 16 29 33 28l0 0c16-2 28-16 27-33-1-8-4-15-11-20 0 0-1-1-1-1z m-27 37c-4-3-7-7-7-12-1-9 6-16 15-17 4 0 8 1 11 4 4 2 6 6 6 11 1 9-6 16-15 17-3 0-7-1-10-3z m-594 648l-24-17-3 4c-9 12-15 21-17 23-7 8-21 27-19 42 1 11 1 38 2 57 0 13 0 24 0 28 2 27 44 29 57 29 5 0 47 0 65-25 1-1 4-5 7-8 3-4 7-9 10-12l1-1c1-1 2-2 2-2l-24-17 12 8-11-10-1 2c0 0 0 1-1 1l0 0c-2 4-6 8-10 12-6 7-7 8-8 10-7 9-28 13-41 13-10 0-23-2-28-5 0-5 0-14-1-23 0-21-1-47-2-59 1-4 7-14 13-21l1-1 0 0c0 0 6-9 17-23l0 0 3-5z m542-733c-6-4-13-6-20-6-17 2-29 16-28 33 1 8 5 15 11 20 6 5 14 8 22 7 8-1 15-4 20-11 5-6 8-14 7-22-1-8-6-16-12-21z m-27 37c-1 0-1 0-1 0-4-3-6-7-6-11-1-9 6-17 15-18 9 0 16 6 17 15 0 4-1 8-4 12s-6 5-11 5l0 0c-3 1-7 0-10-3z" horiz-adv-x="1000" />

<glyph glyph-name="blender" unicode="&#xe849;" d="M355-141c-19 0-34 7-46 19-22 24-20 62-20 66 9 174 67 347 81 384-64 99-90 436-91 451l0 8 6 4c1 1 14 11 40 23 56 27 163 27 168 27l0-29c-1 0-106 0-155-24-14-6-23-11-29-15 5-54 32-358 89-433l4-7-2-7c-1-2-72-192-82-383l0 0c0-8 1-32 13-45 6-6 14-9 25-9 73 1 122 0 122 0l0-29c-1 0-49 1-121 0-1-1-1-1-2-1z m276 0c-1 0-1 0-2 0-72 2-120 0-121 0l0 29c0 0 49 2 122 0 11 0 19 3 25 10 15 15 13 44 13 44l0 1c-9 191-81 381-81 383l-3 7 5 6c56 76 84 379 88 434-6 3-15 9-29 15-47 24-154 24-155 24v29c5 0 114 0 168-27 25-12 39-22 39-22l7-5-1-8c-1-15-27-351-90-450 13-37 72-210 81-385 0-3 2-42-21-66-11-12-27-19-45-19z m-153 0l0 29c0 0 79 2 152 0l-1-29c-72 2-150 0-151 0z m99 0c-58 0-106 1-107 1l0 29c1 0 75-1 152-1l0-29c-15 0-30 0-45 0z m-97 447c-65 0-97 10-99 11l10 28-5-14 5 14c0-1 68-22 207 0l4-28c-49-9-90-11-122-11z m160 96l-9 28c47 15 85 48 110 94l0 1c5 9 26 81 13 142-12 52-63 45-65 45l-4 29c27 4 83-6 97-68 16-70-9-150-15-162l-1 0c-27-53-72-92-126-109z m3 49l-7 28c42 11 55 50 62 74 2 3 3 6 4 9 6 15 8 68 7 99 0 2 0 4-2 5-7 7-25 8-32 8l-1 29c4 0 35 1 53-15 7-7 11-16 11-26 1-26-1-87-10-110 0-2-1-5-2-8-8-26-26-78-83-93z m-350 215l-93 113 94 16 2-1c2 0 240-37 392 0l7-28c-151-37-374-5-401-1l-40-7 61-74-22-18z m200-697c-46 0-84 38-84 84 0 47 37 85 84 85s84-38 84-85c0-46-38-84-84-84z m0 139c-30 0-55-24-55-55s24-55 55-55c30 0 55 24 55 55s-25 55-55 55z m20 574c-112 0-210 17-216 18l5 29c3 0 223-39 380 0l7-29c-55-13-118-18-176-18z m59 17" horiz-adv-x="1000" />

<glyph glyph-name="cuilliere" unicode="&#xe84a;" d="M72 769c0 0-46-47-18-95s103-4 103-4l583-590c0 0 29-26 37-92 8-66 83-98 83-98s54-22 84 14l-872 865z m0 0c0 0 59 63 114 36 50-24 2-103 2-103l579-594c0 0 25-29 91-39s96-85 96-85 23-39-10-80l-872 865z" horiz-adv-x="1000" />

<glyph glyph-name="doseur" unicode="&#xe84b;" d="M682 375c1 4 48 388 52 417 3 16-3 26-8 32-10 12-25 12-26 12h-193v0h-193c-2 0-17 0-27-12-5-5-10-15-8-32 4-29 51-413 52-417 0-1 5-32 12-64 7-27 13-46 20-57-5-6-11-14-14-25-7-23-54-259-56-269-1-2-4-23 14-44 28-35 92-52 189-52 4 0 7 0 11-1l0 1h10c97 0 161 17 189 52 18 21 15 42 15 44-2 10-50 246-57 269-3 11-8 19-14 24 7 12 14 31 20 58 7 31 12 62 12 64z m13-420l0 0c0-1 1-11-10-23-14-16-55-43-178-41v-1c-123-1-164 25-178 41-11 12-10 22-10 23 17 85 51 249 56 267 3 11 8 15 11 17h0c1 0 1 0 1-1 22-4 76-14 135-14 36 0 73 4 106 14 1 0 1 0 1 0 3-2 8-6 10-16 6-17 39-181 56-266z m-66 312l-1-3c-18-6-38-9-58-11-76-8-158 6-183 12 0 0 0 0 0 0-8 9-20 53-28 101h111v27h-114c-3 25-10 80-18 141h113v27h-116c-5 43-11 88-16 127h111v27h-114c-6 42-9 73-11 80 0 6 0 10 2 12 2 2 7 3 7 3h193v-1h193c0 0 5 0 7-2 2-3 2-9 1-12-4-29-50-401-52-416-7-45-17-97-27-112z" horiz-adv-x="1000" />

<glyph glyph-name="mitigeur" unicode="&#xe84c;" d="M915 3c-10 10-25 13-39 9l-566 566c37 51 32 123-13 169-51 51-134 51-185 0-51-51-51-134 0-185 47-47 122-51 173-10l566-565c-4-14-1-29 9-39 15-15 40-15 55 0s15 40 0 55z" horiz-adv-x="1000" />

<glyph glyph-name="paille" unicode="&#xe84d;" d="M315 712c0 0 111 39 167-53l424-730c0 0 3-5 8-2 7 3 38 16 34 27l0 1-425 729c-87 140-220 75-220 75l-249-94c0 0-4 0-2-6s13-36 13-36 0-5 14 0c12 5 197 75 238 90l-2-1z" horiz-adv-x="1000" />

<glyph glyph-name="passoire" unicode="&#xe84e;" d="M453 306l-24 32c-18 6-24 21-24 33l-21 29c-6 7-160 189-241 284-6 7-20 23-19 36 1 10 2 33 2 51 0 12 0 22 0 27 2 21 38 23 49 23 4 0 41 0 57-21 10-14 213-340 239-381 8-3 22-10 28-32l25-35-17-12-27 38-1 2c-4 18-15 19-15 19l-5 0-3 5c-80 128-233 373-241 384-7 9-28 13-40 13-11 0-24-3-28-6 0-4 0-14 0-24 0-19-1-42-2-53 0-3 7-12 13-19l1 0c40-47 239-282 243-286l25-36-1-4c0-4 0-13 12-15l4-1 28-38-17-13z m162-363c-11 0-22 1-33 2-58 9-109 40-143 87-72 97-51 234 46 305 97 71 234 51 305-46 35-47 49-105 40-163-8-57-39-108-86-143-38-28-83-42-129-42z m-1 416c-40 0-81-13-116-39-88-64-107-188-42-276 38-52 98-80 159-80 41 0 82 12 117 38 87 65 106 189 42 276-39 53-99 81-160 81z m1-359c-8 0-16 1-25 2-42 6-80 29-105 64-26 34-36 77-30 119s29 80 64 106c34 26 77 36 119 30 43-7 80-29 106-64l0 0c26-35 36-77 30-120-7-42-29-80-64-105-28-21-61-32-95-32z m-1 301c-29 0-58-9-82-27-30-22-50-55-56-92-6-37 3-74 26-104 22-30 54-50 92-56 37-6 74 3 104 26 30 22 50 54 56 92 5 37-4 74-26 104l0 0c-22 30-55 50-92 56-7 1-15 1-22 1z m1-156c0 0-1 0-2 0-4 1-8 3-10 6-3 4-4 8-3 12s2 8 6 10c3 3 7 4 11 3s8-2 11-6c2-3 3-7 3-11-1-4-3-8-6-11-3-2-6-3-10-3z m0 26c-2 0-4-1-6-2-2-2-3-4-4-7 0-3 1-5 2-8 2-2 4-3 7-4 3 0 5 1 8 2 2 2 3 4 4 7s-1 5-2 8c-2 2-4 3-7 4-1 0-1 0-2 0z m34-113c0 0-1 0-2 1-4 0-8 2-10 6-3 3-4 7-3 11s2 8 6 11c7 5 16 3 21-4v0c5-7 4-16-3-21-2-2-5-4-9-4z m0 26c-2 0-4 0-6-2-2-1-3-4-4-6 0-3 1-6 2-8s4-4 7-4c3 0 5 0 8 2 4 3 5 10 2 14-3 3-6 4-9 4z m-28 154c-1 0-2 0-3 0-4 1-7 3-10 6-5 7-4 17 3 22 4 2 8 3 12 3 4-1 8-3 10-6l0 0c3-4 4-8 3-12 0-4-2-8-6-10-3-2-6-3-9-3z m0 25c-2 0-5 0-6-2-5-3-6-9-2-14 1-2 4-4 6-4 3 0 6 0 8 2 2 2 4 4 4 7 0 2 0 5-2 7l0 0c-2 3-4 4-7 4 0 0-1 0-1 0z m70-171c-4 0-9 2-12 6-3 4-4 8-3 12 0 4 2 8 6 10 3 3 7 4 11 3 4 0 8-2 11-6 5-7 3-16-4-21-2-3-5-4-9-4z m0 26c-2 0-4-1-6-2-2-2-3-4-4-7 0-3 1-5 2-8 4-4 10-5 15-2 4 4 5 10 2 15v0c-2 2-4 3-7 4-1 0-1 0-2 0z m-25 104c-4 0-9 3-12 7-3 3-4 7-3 11 0 4 2 8 6 11 3 2 7 3 11 3 4-1 8-3 11-6 2-4 3-8 3-12-1-4-3-8-6-10-3-3-7-4-10-4z m0 26c-2 0-4-1-6-2-2-2-3-4-4-7 0-2 1-5 2-7 4-5 10-6 15-2 2 1 3 4 4 6 0 3-1 6-2 8v0c-2 2-4 4-7 4-1 0-1 0-2 0z m33-64c0 0-1 0-2 1-4 0-8 2-10 6-3 3-4 7-3 11 0 4 2 8 6 11 3 2 7 3 11 3 4-1 8-3 11-6l0 0c2-4 3-8 3-12-1-4-3-8-6-10-3-3-6-4-10-4z m0 26c-2 0-4-1-6-2-2-2-3-4-4-7 0-2 1-5 2-7 2-3 4-4 7-4 3-1 5 0 8 2 2 1 3 4 4 6 0 3-1 6-2 8l0 0c-2 2-4 4-7 4-1 0-1 0-2 0z m9-73c-1 0-2 0-3 1-4 0-7 2-10 6-5 7-4 16 3 21 4 3 8 4 12 3 4 0 8-2 10-6 3-3 4-7 3-11 0-4-2-8-6-11-3-2-6-3-9-3z m0 26c-2 0-5-1-6-2-5-3-6-10-2-14 1-3 4-4 6-4 3-1 6 0 8 2 5 3 5 9 2 14-2 2-4 4-7 4 0 0-1 0-1 0z m-136 64c0 0-1 0-2 1-4 0-8 2-10 6-3 3-4 7-3 11s2 8 6 11c7 5 16 3 21-4v0c5-7 4-16-3-21-2-3-5-4-9-4z m0 26c-2 0-4-1-6-2-2-2-3-4-4-7 0-2 1-5 2-7s4-4 7-4c3-1 5 0 8 2 4 3 5 9 2 14-3 2-6 4-9 4z m-37-62c-1 0-2 0-3 1-4 0-7 2-10 6-2 3-3 7-3 11 1 4 3 8 6 11 3 2 7 3 12 3 4-1 7-3 10-6 2-4 3-8 3-12-1-4-3-8-6-10-3-2-6-4-9-4z m0 26c-2 0-5 0-6-2-3-1-4-4-4-6-1-3 0-6 2-8 1-2 4-4 6-4 3 0 6 0 8 2 2 2 4 4 4 7 0 2 0 5-2 7v0c-2 3-4 4-7 4 0 0-1 0-1 0z m68-164c-1 0-2 0-3 0-4 1-7 3-10 6-5 7-4 17 3 22 4 2 8 3 12 3 4-1 8-3 10-6 3-4 4-8 3-12 0-4-2-8-6-10-3-2-6-3-9-3z m0 25c-2 0-5 0-6-2-5-3-6-9-2-14 1-2 4-4 6-4 3 0 6 0 8 2 2 2 4 4 4 7 0 2 0 5-2 7v0c-2 3-4 4-7 4 0 0-1 0-1 0z m-81 71c-1 0-3 0-4 1-4 1-7 3-9 7-5 7-2 17 6 21 7 4 17 1 21-6 4-7 1-17-6-21l0 0c-3-1-5-2-8-2z m0 26c-2 0-3 0-5-1-5-3-7-9-4-14 1-2 3-4 6-5 3 0 5 0 8 1l0 0c5 3 6 9 4 14-2 3-5 5-9 5z m8-69c-5 0-10 3-13 8-2 4-3 8-2 12s4 7 8 9c3 2 7 3 11 2 4-1 8-4 10-8 4-7 1-17-6-21l0 0c-2-1-5-2-8-2z m0 26c-1 0-3 0-5-1-2-2-4-4-4-6s-1-6 1-8c2-5 9-7 13-4 5 3 7 9 4 14-1 2-3 4-6 4-1 1-2 1-3 1z m28-61c-1 0-3 0-4 1-4 1-7 3-9 7-5 7-2 17 6 21 7 4 17 1 21-6 4-7 1-17-6-21l0 0c-2-1-5-2-8-2z m0 26c-1 0-3-1-5-2-5-2-6-9-4-13 2-3 4-4 6-5 3-1 6 0 8 1l0 0c5 3 7 9 4 14-2 3-5 5-9 5z m-368 616c-2 0-3 0-5 1-8 1-15 5-20 12-5 7-7 15-6 23 2 8 6 15 13 20s14 7 23 6c8-2 15-6 20-13l0 0c5-6 7-14 5-23-1-8-5-15-12-20-5-3-12-6-18-6z m0 49c-4 0-8-1-11-3-4-3-6-7-7-12-1-5 0-10 3-14s7-6 12-7c5-1 10 0 14 3 4 3 6 7 7 12 1 5 0 10-3 14l0 0c-3 4-7 6-12 7-2 0-3 0-3 0z m228-399c-3 0-5 1-6 1l8 20c-1 0-2 0-2 0 0 0 12 1 38 32l16-13c-28-33-45-40-54-40z m22-27c-3 0-5 0-6 1l8 19c-2 1-2 1-2 1 0 0 11 0 38 32l16-14c-28-33-45-39-54-39z m1-60c-42 54-37 58-34 61 5 4 23-7 54-34l-4-4c-18 16-41 33-47 34 0-3 4-13 35-54l-4-3z m-18-26c-41 54-37 58-34 61 5 4 23-7 54-34l-4-4c-18 16-41 33-46 34 0-3 3-13 34-54l-4-3z m-8-26c-52 44-48 49-46 52 4 6 24-1 60-21l-3-5c-21 12-47 24-52 23 0-3 6-12 45-45l-4-4z m-7-33c-59 33-56 39-55 42 3 7 24 3 63-9l-1-5c-24 7-51 14-56 12 1-2 8-10 52-35l-3-5z m-3-14c-59 33-56 39-55 42 3 7 24 3 63-9l-1-5c-24 7-51 14-56 12 1-2 8-10 52-35l-3-5z m4-25c-67 11-67 17-67 21 1 7 22 11 63 12l0-5c-25-1-53-4-57-7 2-2 12-7 62-16l-1-5z m5-31c-67 11-67 18-67 21 1 7 22 11 63 13l0-6c-25 0-53-3-57-7 2-2 12-7 62-15l-1-6z m-42-23c-15 0-16 3-17 5-1 7 17 17 56 31l2-5c-24-8-49-19-52-24 2-1 13-3 63 4l1-5c-27-4-43-6-53-6z m-1-33c-7 0-7 2-8 4-3 6 15 19 51 38l2-5c-22-11-46-26-48-31 2-1 14-1 62 13l1-5c-34-11-51-14-60-14z m14-28c-7 0-7 2-8 3-3 7 15 20 51 38l2-4c-22-12-46-26-48-31 2-1 14-2 62 12l1-5c-35-10-51-13-60-13z m18-34c-2 0-3 1-3 2-5 5 6 23 32 55l4-3c-16-19-32-42-33-48 3 0 13 4 53 36l3-4c-38-32-51-38-56-38z m424 176l0 5c24 2 52 5 56 9-2 2-12 7-62 13l1 6c67-9 67-15 67-19 0-7-21-12-62-14z m-6 30l0 6c24 1 52 5 56 9-2 1-12 6-62 13l1 5c67-9 67-15 67-18 0-7-21-12-62-15z m34-56c-8 0-16 0-26 0l0 6c25-2 53-1 58 2-2 2-11 8-60 21l1 5c66-17 65-23 64-26-1-6-13-8-37-8z m-40 82l-1 5c23 7 50 17 53 21-2 2-13 4-63 0l-1 5c68 6 69 0 70-4 1-6-19-16-58-27z m-13 31l-2 5c22 11 46 25 48 30-2 1-13 2-62-12l-1 5c65 19 67 13 69 9 2-6-15-18-52-37z m-22 22l-2 5c22 11 46 26 48 31-3 1-14 1-62-13l-2 6c66 18 68 12 69 9 3-7-14-19-51-38z m-8 22l-4 3c17 18 34 40 35 46-3 0-13-4-54-33l-3 4c55 40 59 35 61 32 5-5-7-22-35-52z m-16 18l-5 3c10 22 21 48 19 54-2-1-11-7-42-48l-4 3c41 55 46 51 49 50 7-4 1-25-17-62z m-29 17l-5 2c11 22 21 49 20 54-3 0-12-7-42-47l-4 3c40 54 46 51 49 49 6-3 0-24-18-61z m-20 8l-5 2c8 23 14 50 12 56-2-1-10-9-35-53l-4 3c33 59 38 56 42 55 6-3 3-24-10-63z m-52 13l-5 2c16 66 22 65 25 64 7-1 10-22 8-63l-5 1c1 24 0 52-3 57-2-2-8-12-20-61z m-29-3l-5 0c7 68 13 68 17 68 7 0 12-21 16-62l-5-1c-3 25-7 53-11 57-2-2-6-12-12-62z m-97-6c-15 66-9 68-6 69 7 2 18-16 35-53l-5-2c-10 22-23 47-28 50-1-3-2-14 9-63l-5-1z m-16-16c-23 63-18 66-15 68 7 3 21-14 42-48l-5-3c-12 21-29 44-34 46-1-3 0-14 17-61l-5-2z m71 23c-5 68 1 69 5 70 7 1 16-19 26-58l-5-2c-6 24-16 51-20 54-2-2-4-13-1-63l-5-1z m12 0c-5 68 1 69 5 69 6 1 15-18 26-58l-5-1c-7 24-16 50-21 54-1-3-4-13 0-64l-5 0z m-43 0c-4 67 2 68 5 69 7 1 16-18 27-58l-6-1c-6 23-15 50-20 53-1-2-4-13-1-63l-5 0z m67-478c0 0-1 0-1 0-7 1-10 22-9 63l5 0c0-24 1-52 5-57 2 2 7 11 18 61l5-1c-13-61-19-66-23-66z m14 1c0 0 0 0-1 0-7 1-10 22-9 63l5 0c0-24 2-52 5-57 2 2 8 11 18 61l6-1c-14-61-20-66-24-66z m42 6c-7 0-15 20-23 59l6 1c5-24 12-51 16-55 2 2 5 13 5 64l5 0c1-68-6-69-9-69 0 0 0 0 0 0z m29 10c-6 0-14 20-22 59l5 1c5-24 13-51 17-55 2 2 5 13 5 64l5 0c0-68-6-69-10-69 1 0 0 0 0 0z m39 16c-7 0-18 18-33 54l5 2c10-22 22-48 27-50 1 2 2 13-7 63l5 1c13-67 7-69 4-70-1 0-1 0-1 0z m39 24c-8 0-23 13-48 40l4 4c17-19 37-38 43-39 0 3-3 13-29 57l5 2c35-58 30-62 27-64 0 0-1 0-2 0z m20 23c-7 0-23 14-47 41l4 3c16-18 37-37 42-38 0 2-2 13-28 56l4 3c35-58 30-62 27-64 0 0-1-1-2-1z m22 31c-9 0-27 8-55 24l3 5c21-13 46-25 52-24-1 2-6 12-44 45l4 4c50-45 47-50 45-53-1-1-3-1-5-1z m19 27c-9 0-28 6-55 17l2 5c23-9 50-18 55-17-1 3-7 11-49 40l3 4c56-38 53-43 51-46-1-2-3-3-7-3z m13 29c-9 0-28 6-55 17l2 5c23-9 49-18 55-16-1 2-8 11-50 39l3 4c57-37 54-43 52-46-1-2-3-3-7-3z m-43 32l0 5c24 0 52 3 57 6-2 2-12 8-62 17l1 5c67-12 67-19 66-22 0-7-21-11-62-11z m9 33l0 5c25 0 53 3 57 6-2 2-12 8-61 17l1 5c66-12 66-19 66-22-1-7-22-11-63-11z m-408-132c-4 0-5 1-6 2-3 6 12 22 45 46l3-5c-20-14-41-32-43-38 3 0 14 1 60 22l2-5c-39-18-55-22-61-22z m21-23c-4 0-5 1-5 3-4 6 11 21 44 45l4-4c-20-15-42-33-43-38 2-1 13 1 59 22l2-5c-39-19-54-23-61-23z m28-26c-2 0-3 1-4 2-4 5 7 23 34 54l4-4c-16-18-33-41-34-46 3 0 13 3 54 34l3-4c-39-30-52-36-57-36z m37-24c-1 0-2 0-2 1-6 4 2 24 23 59l4-3c-12-21-25-46-24-52 3 1 12 6 46 44l4-4c-35-39-46-45-51-45z m29-13c-2 0-2 1-3 1-6 4 2 24 23 60l5-3c-13-21-25-46-25-52 3 1 12 6 46 44l4-4c-35-39-46-46-50-46z m27-10c-1 0-1 0-2 0-7 2-6 23 1 64l6-1c-5-24-8-52-6-57 3 1 10 10 29 56l5-2c-22-54-29-60-33-60z m31-2c-1 0-1 0-2 0-7 2-6 24 1 64l6-1c-5-24-8-52-6-57 3 1 10 10 29 57l5-2c-22-55-29-61-33-61z" horiz-adv-x="1000" />

<glyph glyph-name="pilon" unicode="&#xe84f;" d="M932 47c-9 64-111 152-313 270-4 2-7 4-9 5-52 31-187 193-266 306-87 127-151 173-189 188-49 21-95-27-97-29l24-22c0 0 32 33 60 21 28-11 89-50 175-176 84-122 219-282 276-316 2-1 6-3 9-5 125-73 198-127 241-167-53-67-102-107-123-123-40 43-94 116-168 242-2 3-3 6-5 8-33 57-194 192-315 276-127 87-165 147-177 175-11 28 22 60 22 60l-23 23c-2-2-49-47-29-96 16-39 62-103 188-190 114-78 276-214 306-265 2-2 3-5 5-8 119-203 207-306 271-314 3 0 6 0 9 0 16 0 30 6 42 18l0 0 68 68-12 11 12-11c14 14 20 31 18 51z m-41-28l-68-68 0 0c-7-7-14-10-24-8-11 1-29 9-56 32 25 19 72 59 123 124 24-27 31-45 33-57 1-9-1-17-8-23l0 0z" horiz-adv-x="1000" />

<glyph glyph-name="presse_agrumes" unicode="&#xe850;" d="M714 453c-21 244-196 333-229 347-179-70-203-344-203-347l-34 3c1 3 7 76 37 160 42 112 109 187 194 218l6 2 6-2c2-1 59-22 119-80 55-52 124-147 137-298l-33-3z m-252-30c0 0 0 0 0 0-39 0-131 6-212 19-149 23-171 54-174 78-1 11 3 23 11 33 40 46 191 54 208 55l2-33c-59-3-161-18-184-44-4-4-4-7-3-8 0 0 4-26 145-48 80-12 169-18 207-18 0 0 0 0 0 0 83 0 161 3 226 9 156 14 187 40 193 50 3 6 2 8 1 9-12 23-105 44-184 50l3 33c30-2 184-16 211-67 4-9 8-24-2-42-13-21-49-51-219-66-66-6-145-10-229-10z m34-558c-64 0-122 8-171 17-146 30-237 85-241 87l-8 5v548h34v-529c25-13 107-55 223-78 129-26 329-33 545 76 2 1 4 2 5 3v522h34v-543l-9-4c-5-3-10-5-15-8-144-73-281-96-397-96z m-23 417c-63 0-118 5-163 12-142 20-221 60-225 62l16 30c0-1 79-40 216-60 126-18 331-22 585 61l11-32c-172-55-321-73-440-73z m-134 168l-34 0c3 182 159 361 166 368l16 18 11-22c4-8 102-204 83-361l-33 4c14 116-44 262-69 319-40-51-139-190-140-326z" horiz-adv-x="1000" />

<glyph glyph-name="shaker-1" unicode="&#xe851;" d="M438-131c-14 0-30 1-45 1-30 1-43 67-60 305-2 27-3 50-5 66-8 82-15 283-15 285 0 3 0 24 12 36 15 17 16 29 16 31l0 0 0 0c-3 50 43 76 62 84 1 33 2 97 0 113-1 9 1 18 6 25 11 13 29 16 31 16l2 0h58v-26h-57c-4-1-10-3-13-6-1-1-1-3-1-5 3-23 0-115 0-126l0-9-9-3c0 0-55-20-53-61 0-4 1-25-23-50-3-4-4-14-4-18 0-2 7-202 14-284 2-16 4-40 5-67 4-53 9-120 16-176 9-81 19-100 22-104 42-2 93 0 94 0l0-26c0 0-24-1-53-1z m99 1c-27 0-50 0-51 0l0 26c1 0 81-1 118 0 3 4 12 23 22 104 6 56 11 123 15 176 2 27 4 51 5 67 8 82 15 281 15 283 0 5-2 14-5 18-23 25-23 46-23 50 2 42-53 62-53 62l-8 3-1 9c0 10-3 102 0 125 1 3 0 4-1 5-2 3-9 6-12 6h-58v27l60 0c2 0 21-3 31-16 5-7 7-15 6-25-2-16-1-80 0-112 20-9 65-35 63-84l0-1c0-1 0-14 15-30 12-13 12-34 12-37 0-2-7-203-15-285-1-16-3-40-5-67-4-58-9-130-17-189-12-96-25-115-43-115-18 0-45 0-70 0z m-47 774c-52 0-78 12-80 13l11 23c1 0 53-23 160 1l6-25c-39-9-71-12-97-12z m14-95c-85 0-149 16-153 17l6 25c1 0 144-34 286 0l6-25c-50-13-100-17-145-17z m-14-48c-102 0-165 24-168 25l9 25c1-1 138-52 339 0l7-25c-71-18-134-25-187-25z" horiz-adv-x="1000" />

<glyph glyph-name="verre_apied_empty" unicode="&#xe852;" d="M669-99l0 1-1 1c-11 11-29 15-53 18-2 1-4 1-6 1l-2 1c-6 0-11 1-16 2-19 4-43 10-59 25l-1 1c-5 5-10 12-13 20l0 0c-1 2-1 4-2 7l0 0c-1 2-1 3-1 5-2 10-4 20-5 29l0 1c0 4-1 8-1 12 0 4 0 8 0 12 0 34 1 210 5 274 0 3 0 6 0 8 0 2 1 4 1 6 0 0 0 1 0 2 1 1 2 2 4 4 75 68 108 166 98 293l-1 7c0 1 0 3 0 4-4 37-11 70-17 95-2 9-4 16-5 23-2 10-5 21-5 24 1 15-5 24-9 29-10 9-22 10-26 10h-67-28-68c-3 0-16-1-25-10-5-5-10-14-9-29 0-3-3-14-5-24-5-18-11-44-16-74-2-12-4-25-6-38 0-4 0-7-1-10 0-1 0-2 0-3-12-128 21-228 98-297 1-1 2-3 4-4 0-1 0-1 0-2 0-2 0-4 0-6 0-3 0-5 1-8 4-69 5-265 5-274 0-4 0-8-1-12 0-4 0-8-1-12l0-1c-1-9-2-19-4-29 0-2-1-3-1-5l0 0c-1-2-1-5-2-7l0 0c-3-8-8-15-13-20l-1-1c-16-15-40-21-59-25-5-1-10-1-15-2l-3-1c-2 0-4 0-6-1-24-3-42-7-53-18l-1-1 0-1c-4-5-5-12-2-18 4-9 13-14 31-17 0 0 0 0 0 0v-2h16c6 0 14-1 24-1h2c4 0 9 0 15 0h0c15 0 30 0 46 1h60 8 60c15 0 30-1 45-1 6 0 11 0 16 0h2c10 0 18 1 24 1l16 0v2c0 0 0 0 0 0 18 3 27 8 31 17 3 6 2 13-2 18z m-131-5h-61-8-61c-15-1-29-1-44-1 23 4 51 12 71 31 1 1 2 2 2 2 9 9 16 19 20 31 1 3 3 6 3 10 1 2 2 5 2 7 2 12 4 23 5 33l0 1c0 4 1 8 1 13 0 5 0 9 0 14 0 22 0 204-5 274 0 4 0 7 0 11 0 2-1 3-1 5 0 7 0 11-3 15 0 1 0 1-1 2l-1 2-2 2c-2 2-5 4-7 6-67 60-97 148-89 260v0c1 4 1 8 1 12l0 2c1 9 2 17 3 25 5 38 13 70 19 93 5 20 7 28 6 34 0 3 0 4 0 4 1 1 2 1 2 1h68 29 68c0 0 2-1 2-1 0 0 0-1 0-4-1-6 1-14 6-34 5-21 12-49 17-82 2-11 4-23 5-36l0-6c1-10 2-19 2-29 3-102-27-182-89-239-3-2-5-4-8-6l-2-2-1-2c0-1-1-1-1-2-2-4-2-8-3-15 0-2 0-3 0-5 0-3-1-7-1-11-4-67-5-240-5-273 0-6 0-10 1-14 0-5 0-9 1-13l0-1c1-11 2-22 5-33 0-2 1-5 1-7 1-4 3-8 4-11 4-12 11-22 20-30 0-1 1-2 2-2 20-20 48-28 71-32-14 0-29 0-44 1z" horiz-adv-x="1000" />

<glyph glyph-name="verre_apied_full" unicode="&#xe853;" d="M460 342h-22c-90 81-101 194-92 285l14-13 17-16-17 15c-8-112 22-200 89-260 2-2 5-4 7-6l2-2 1-2c0 0 1 0 1-1z m95 232l0 0c-3 1-11 2-14 2-4-1-8-3-14-7-5-3-10-7-16-10-4-3-8-6-12-9-4-2-7-5-10-6-5-4-11-6-17-9l-1 0c-13-6-28-7-43-4-12 2-24 7-36 14-7 4-12 8-17 12 4-76 29-138 75-183h46c48 47 73 112 76 192-5 2-13 7-17 8z m-80-82c-9 0-16 7-16 16 0 9 8 16 16 16s16-7 16-16c0-9-7-16-16-16z m29-27c-5 0-9 5-9 10 0 5 4 10 9 10 6 0 10-5 10-10 0-5-4-10-10-10z m28 27c-15 0-28 12-28 27 0 15 12 28 28 28s27-13 27-28c0-15-12-27-27-27z m-23-150h-22c0 1 0 1 1 2l1 2 2 1c2 2 5 5 7 7 63 56 93 136 90 239 2-1 3-2 4-3 1-1 10-3 2 6l8 27c7-91-5-202-93-281z m108 282l0 7c0 1-1 3-1 4-3 37-10 70-16 95l-19-66c2-12 3-24 4-36l1-7c1-10 1-19 2-28 3-103-27-183-90-239-2-3-5-5-7-7l-2-2-1-2c-1 0-1-1-1-1-2-5-3-9-3-16 0-1 0-3 0-5-1-3-1-7-1-11h32c0 3 0 6 0 9 0 2 1 4 1 5 0 1 0 2 0 3 1 1 2 2 4 3 75 68 108 167 97 294z m-154-302c0 2 0 3 0 5-1 7-1 11-3 15-1 1-1 1-1 2l-2 2-1 2c-3 2-5 4-8 6-67 60-96 148-88 260l16-15-16 16c0 4 0 8 1 12l0 2c0 8 1 17 3 25l-28 25c-2-12-4-24-6-38 0-3 0-6-1-10 0 0 0-1 0-2-12-129 21-229 98-298 1-1 2-2 4-3 0-1 0-2 0-3 0-1 0-3 0-5 0-3 0-6 1-9h31c1 4 0 7 0 11z m206-421l0 1-1 1c-11 11-29 15-53 18-2 1-4 1-6 1l-2 1c-6 0-11 1-16 2-19 4-43 10-59 25l-1 1c-5 5-10 12-13 20l0 0c-1 2-1 4-2 7l0 0c-1 2-1 3-1 5-2 10-4 20-5 29l0 1c0 4-1 8-1 12 0 4 0 8 0 12 0 34 1 210 5 274 0 3 0 6 0 8 0 2 1 4 1 6 0 0 0 1 0 2 1 1 2 2 4 4 75 68 108 166 98 293l-1 7c0 1 0 3 0 4-4 37-11 70-17 95-2 9-4 16-5 23-2 10-5 21-5 24 1 15-5 24-9 29-10 9-22 10-26 10h-67-28-68c-3 0-16-1-25-10-5-5-10-14-9-29 0-3-3-14-5-24-5-18-11-44-16-74-2-12-4-25-6-38 0-4 0-7-1-10 0-1 0-2 0-3-12-128 21-228 98-297 1-1 2-3 4-4 0-1 0-1 0-2 0-2 0-4 0-6 0-3 0-5 1-8 4-69 5-265 5-274 0-4 0-8-1-12 0-4 0-8-1-12l0-1c-1-9-2-19-4-29 0-2-1-3-1-5l0 0c-1-2-1-5-2-7l0 0c-3-8-8-15-13-20l-1-1c-16-15-40-21-59-25-5-1-10-1-15-2l-3-1c-2 0-4 0-6-1-24-3-42-7-53-18l-1-1 0-1c-4-5-5-12-2-18 4-9 13-14 31-17 0 0 0 0 0 0v-2h16c6 0 14-1 24-1h2c4 0 9 0 15 0h0c15 0 30 0 46 1h60 8 60c15 0 30-1 45-1 6 0 11 0 16 0h2c10 0 18 1 24 1l16 0v2c0 0 0 0 0 0 18 3 27 8 31 17 3 6 2 13-2 18z m-131-5h-61-8-61c-15-1-29-1-44-1 23 4 51 12 71 31 1 1 2 2 2 2 9 9 16 19 20 31 1 3 3 6 3 10 1 2 2 5 2 7 2 12 4 23 5 33l0 1c0 4 1 8 1 13 0 5 0 9 0 14 0 22 0 204-5 274 0 4 0 7 0 11 0 2-1 3-1 5 0 7 0 11-3 15 0 1 0 1-1 2l-1 2-2 2c-2 2-5 4-7 6-67 60-97 148-89 260v0c1 4 1 8 1 12l0 2c1 9 2 17 3 25 5 38 13 70 19 93 5 20 7 28 6 34 0 3 0 4 0 4 1 1 2 1 2 1h68 29 68c0 0 2-1 2-1 0 0 0-1 0-4-1-6 1-14 6-34 5-21 12-49 17-82 2-11 4-23 5-36l0-6c1-10 2-19 2-29 3-102-27-182-89-239-3-2-5-4-8-6l-2-2-1-2c0-1-1-1-1-2-2-4-2-8-3-15 0-2 0-3 0-5 0-3-1-7-1-11-4-67-5-240-5-273 0-6 0-10 1-14 0-5 0-9 1-13l0-1c1-11 2-22 5-33 0-2 1-5 1-7 1-4 3-8 4-11 4-12 11-22 20-30 0-1 1-2 2-2 20-20 48-28 71-32-14 0-29 0-44 1z" horiz-adv-x="1000" />

<glyph glyph-name="verre_cocktail_empty" unicode="&#xe854;" d="M920 785c-3 8-10 12-18 13l-1 0c-23 1-154 1-401 1h0c-246 0-378 0-401-1l-1 0c-8-1-15-6-18-13-5-12 0-29 15-45l0 0 1-1 164-183 187-207 7-8v0c0-1 0-2 0-3 0-1 0-3 1-5 7-59 8-272 8-274 0-4 0-8 0-11-1-5-1-8-2-12l0-1v0c-1-9-3-18-6-27-1-2-1-3-2-4l0-1c-1-2-2-4-3-6l0 0c-4-8-11-14-19-20l-1 0c0 0 0 0-1-1l0 0c-24-15-61-22-91-25-9-1-19-2-27-3l-10-1c-34-4-57-7-72-16l-1-1-1-1c-5-5-7-12-4-19 4-11 15-17 45-19 0 0 1 0 1 0v-2h17c10 0 21-1 36-1h2c7 0 14 0 22 0h1c22 0 43 1 66 2h71 30 71c23-1 45-1 67-2 8 0 15 0 22 0h3c14 1 26 1 36 1l16 0v1c1 0 2 0 2 0 30 3 41 8 45 19 2 7 1 15-5 20l-1 1-1 0c-14 10-37 13-72 16l-9 1c-8 1-18 2-27 3-29 4-66 10-91 26l0 0c-1 0-1 0-1 1l-1 0c-8 5-15 12-19 19l0 1c-1 1-2 3-3 6l-1 0c0 1-1 3-1 4-3 10-5 19-6 27l-1 2c0 3-1 7-1 11 0 4 0 7 0 12 0 2 0 215 8 274 0 2 0 4 1 5 0 1 0 2 0 3v0l7 8 172 191 91 100 37 41 52 58 1 0 0 0 0 0c15 17 20 34 15 46z m-463-447c0 0-1 1-1 1l11 9-10-10z m86 0l-10 10 11-9c0 0-1 0-1-1z m338 423l-94-103-36-41-218-242-13-14 0 0c-3-3-5-7-5-11-1-3-1-5-1-8 0-1-1-3-1-4-8-61-8-276-8-278 0-5 0-10 0-14 1-5 1-9 2-13l0-2c1-10 4-21 7-33 1-2 2-5 3-7 2-4 3-7 5-11 7-11 17-21 30-30 0 0 1-1 2-1 25-16 57-23 86-28-17 0-35 1-53 1h-72-6v0h-47v0h-49c-18 0-36-1-53-1 29 5 61 12 86 28 1 0 2 1 2 1 13 9 23 19 30 30 2 4 3 7 5 11 1 3 2 5 3 8 3 11 6 22 7 33l0 0c1 5 1 9 2 14 0 4 1 9 1 14 0 2-1 218-9 278 0 2 0 3-1 5 0 2 0 5-1 7 0 4-2 8-5 11l0 1-13 14-168 186-13 15-24 26-35 38 0 0-107 120 0 0 0 0-1 0c-1 2-2 3-3 5 58 0 223 0 384 0h0 14 9v0c196 1 318 0 362 0-2-2-3-3-4-5l0 0 0 0z" horiz-adv-x="1000" />

<glyph glyph-name="beaker" unicode="&#xf0c3;" d="M852 42q31-50 12-85t-78-36h-643q-59 0-78 36t12 85l280 443v222h-36q-14 0-25 11t-10 25 10 25 25 11h286q15 0 25-11t11-25-11-25-25-11h-36v-222z m-435 405l-151-240h397l-152 240-11 17v243h-71v-243z" horiz-adv-x="928.6" />

<glyph glyph-name="graduation-cap" unicode="&#xf19d;" d="M990 384l10-177q2-38-46-71t-131-52-180-20-180 20-131 52-46 71l10 177 320-101q12-4 27-4t27 4z m296 180q0-12-13-17l-625-196q-2-1-5-1t-6 1l-364 115q-24-19-39-63t-19-99q35-20 35-61 0-39-32-60l32-242q1-7-4-13-5-7-14-7h-107q-8 0-13 7-6 6-5 13l33 242q-33 21-33 60 0 41 36 62 7 115 55 184l-186 58q-12 5-12 17t12 18l625 196q3 1 6 1t5-1l625-196q13-5 13-18z" horiz-adv-x="1285.7" />
</font>
</defs>
</svg>
